<?xml version="1.0" standalone="no"?>
<!DOCTYPE svg PUBLIC "-//W3C//DTD SVG 1.1//EN" "http://www.w3.org/Graphics/SVG/1.1/DTD/svg11.dtd" >
<svg xmlns="http://www.w3.org/2000/svg">
<metadata></metadata>
<defs>
<font id="proxima_nova_cn_ltbold" horiz-adv-x="1101" >
<font-face units-per-em="2048" ascent="1618" descent="-430" />
<missing-glyph horiz-adv-x="432" />
<glyph unicode="&#xfb01;" horiz-adv-x="1003" d="M33 811v178h129v90q0 145 73 226t195 81q93 0 150 -32l-41 -162q-24 18 -64 18q-51 0 -80.5 -34.5t-29.5 -96.5v-90h163v-178h-163v-811h-203v811h-129zM653 1241q0 53 38 90t91 37t90 -36.5t37 -90.5q0 -53 -37.5 -90t-89.5 -37q-53 0 -91 37.5t-38 89.5zM680 0v989h203 v-989h-203z" />
<glyph unicode="&#xfb02;" horiz-adv-x="1003" d="M33 811v178h129v90q0 145 73 226t195 81q93 0 150 -32l-41 -162q-24 18 -64 18q-51 0 -80.5 -34.5t-29.5 -96.5v-90h163v-178h-163v-811h-203v811h-129zM680 0v1366h203v-1366h-203z" />
<glyph unicode="&#xfb03;" horiz-adv-x="1562" d="M33 811v178h129v90q0 146 73.5 226.5t204.5 80.5q128 0 197 -69l-68 -146q-36 39 -92 39q-54 0 -83 -34.5t-29 -96.5v-90h163v-178h-163v-811h-203v811h-129zM592 811v178h129v90q0 145 73 226t195 81q93 0 150 -32l-41 -162q-24 18 -64 18q-51 0 -80.5 -34.5 t-29.5 -96.5v-90h163v-178h-163v-811h-203v811h-129zM1210 1241q0 53 38 90t91 37t90 -36.5t37 -90.5q0 -53 -37 -90t-90 -37t-91 37.5t-38 89.5zM1237 0v989h203v-989h-203z" />
<glyph unicode="&#xfb04;" horiz-adv-x="1562" d="M33 811v178h129v90q0 146 73.5 226.5t204.5 80.5q128 0 197 -69l-68 -146q-36 39 -92 39q-54 0 -83 -34.5t-29 -96.5v-90h163v-178h-163v-811h-203v811h-129zM592 811v178h129v90q0 145 73 226t195 81q93 0 150 -32l-41 -162q-24 18 -64 18q-51 0 -80.5 -34.5 t-29.5 -96.5v-90h163v-178h-163v-811h-203v811h-129zM1237 0v1366h203v-1366h-203z" />
<glyph horiz-adv-x="2048" />
<glyph horiz-adv-x="2048" />
<glyph unicode="&#xd;" horiz-adv-x="2048" />
<glyph unicode=" "  horiz-adv-x="432" />
<glyph unicode="&#x09;" horiz-adv-x="432" />
<glyph unicode="&#xa0;" horiz-adv-x="432" />
<glyph unicode="!" horiz-adv-x="495" d="M111 117q0 56 40 95.5t97 39.5t97 -39.5t40 -95.5q0 -57 -40 -97t-97 -40t-97 40t-40 97zM123 1366h250l-37 -954h-176z" />
<glyph unicode="&#x22;" horiz-adv-x="763" d="M100 1272q0 47 34.5 80.5t82.5 33.5q46 0 80.5 -33.5t34.5 -80.5q0 -16 -17 -131.5t-34 -223.5l-17 -108h-94q-70 428 -70 463zM432 1272q0 47 34 80.5t83 33.5q47 0 81 -33.5t34 -80.5q0 -16 -17.5 -131.5t-34.5 -223.5l-18 -108h-92q-70 428 -70 463z" />
<glyph unicode="#" horiz-adv-x="1073" d="M37 360l37 136h170l104 374h-170l35 134h174l100 362h158l-102 -362h172l100 362h156l-103 -362h170l-34 -134h-173l-106 -374h176l-37 -136h-178l-102 -360h-156l104 360h-174l-100 -360h-158l103 360h-166zM399 496h168l109 374h-172z" />
<glyph unicode="$" horiz-adv-x="1001" d="M51 150l115 176q50 -58 120.5 -98t151.5 -50v422q-45 20 -72.5 33t-68 36.5t-66 44t-55 52.5t-46 65.5t-27.5 78.5t-11 96q0 144 94 247.5t252 128.5v191h156v-189q190 -21 317 -145l-108 -172q-86 89 -209 111v-383q43 -20 71.5 -34.5t68 -38t65.5 -46t54.5 -54.5 t45.5 -67t28 -80.5t11 -97.5q0 -151 -89.5 -258.5t-254.5 -134.5v-189h-156v182q-237 17 -387 173zM324 1020q0 -89 114 -154v308q-53 -18 -83.5 -58t-30.5 -96zM594 195q55 21 84 65t29 100q0 96 -113 166v-331z" />
<glyph unicode="%" horiz-adv-x="1357" d="M53 1047q0 147 83 243t216 96t216 -96t83 -243q0 -145 -83 -241.5t-216 -96.5t-216 96.5t-83 241.5zM199 1047q0 -91 42 -149t111 -58q68 0 110 57.5t42 149.5q0 93 -42 151.5t-110 58.5q-69 0 -111 -58.5t-42 -151.5zM264 0l719 1366h117l-721 -1366h-115zM707 311 q0 147 83 244.5t216 97.5t216 -97.5t83 -244.5q0 -145 -83 -240.5t-216 -95.5t-216 95.5t-83 240.5zM852 311q0 -91 42.5 -149t111.5 -58t111 58t42 149q0 94 -42 152.5t-111 58.5t-111.5 -58.5t-42.5 -152.5z" />
<glyph unicode="&#x26;" d="M61 356q0 74 19.5 136.5t57.5 111.5t77.5 84t95.5 72q-86 175 -86 297q0 144 89 236.5t225 92.5q121 0 203.5 -77.5t82.5 -202.5q0 -48 -10 -90.5t-33 -78.5t-44.5 -62.5t-60.5 -57t-63.5 -48t-70.5 -46.5q51 -89 106 -164q51 -76 107 -151q61 125 100 276l166 -76 q-68 -207 -156 -346q56 -70 217 -262h-243q-60 73 -90 113q-141 -138 -322 -138q-160 0 -263.5 100.5t-103.5 280.5zM272 371q0 -104 55.5 -168t133.5 -64q95 0 188 103q-105 137 -139 190q-53 78 -119 184q-119 -104 -119 -245zM420 1055q0 -80 51 -195q86 55 131 109 t45 129q0 66 -29.5 101.5t-74.5 35.5q-57 0 -90 -47t-33 -133z" />
<glyph unicode="'" horiz-adv-x="432" d="M100 1272q0 47 34.5 80.5t82.5 33.5q46 0 80.5 -33.5t34.5 -80.5q0 -16 -17 -131.5t-34 -223.5l-17 -108h-94q-70 428 -70 463z" />
<glyph unicode="(" horiz-adv-x="526" d="M92 498q0 246 66.5 477.5t191.5 427.5l137 -80q-88 -201 -131 -395.5t-43 -429.5q0 -234 43.5 -430t130.5 -394l-137 -82q-125 196 -191.5 428t-66.5 478z" />
<glyph unicode=")" horiz-adv-x="526" d="M39 -326l135 -82q126 197 193 429t67 477t-67 476.5t-193 428.5l-135 -80q87 -203 130.5 -397.5t43.5 -427.5q0 -232 -43.5 -427.5t-130.5 -396.5z" />
<glyph unicode="*" horiz-adv-x="675" d="M45 977l205 104l-205 105l55 94l193 -125l-10 231h110l-12 -231l194 125l56 -94l-205 -105l205 -104l-56 -96l-194 125l12 -230h-110l10 230l-193 -125z" />
<glyph unicode="+" horiz-adv-x="903" d="M59 625v133h320v350h145v-350h320v-133h-320v-367h-145v367h-320z" />
<glyph unicode="," horiz-adv-x="497" d="M111 119q0 55 38.5 94t94.5 39q64 0 107.5 -48.5t43.5 -131.5q0 -101 -50.5 -191.5t-135.5 -148.5l-92 75q50 30 92 85.5t51 105.5q-8 -4 -33 -4q-50 0 -83 35t-33 90z" />
<glyph unicode="-" horiz-adv-x="552" d="M61 408v176h431v-176h-431z" />
<glyph unicode="." horiz-adv-x="495" d="M111 117q0 55 40.5 95t96.5 40q57 0 97 -39.5t40 -95.5q0 -57 -40 -97t-97 -40q-56 0 -96.5 40t-40.5 97z" />
<glyph unicode="/" horiz-adv-x="542" d="M0 -41l393 1448h150l-393 -1448h-150z" />
<glyph unicode="0" horiz-adv-x="1081" d="M80 682q0 106 15.5 205t51.5 190.5t88 159.5t131 108.5t175 40.5t175 -40.5t131.5 -108.5t88.5 -159.5t52 -190.5t16 -205t-15.5 -205t-51.5 -191.5t-88.5 -160.5t-131.5 -109t-176 -41q-96 0 -175 41t-131 109t-88 160.5t-51.5 191.5t-15.5 205zM311 682 q0 -506 230 -506q231 0 231 506q0 504 -231 504q-230 0 -230 -504z" />
<glyph unicode="1" horiz-adv-x="720" d="M23 991l368 375h199v-1366h-228v1073l-206 -219z" />
<glyph unicode="2" horiz-adv-x="1044" d="M74 1165q160 221 434 221q185 0 305.5 -107t120.5 -290q0 -54 -12 -106.5t-43.5 -112.5t-67 -114t-100.5 -133t-125.5 -147t-159.5 -177h514v-199h-844v184q337 348 430 455q135 157 165 256q14 45 14 92q0 91 -58 145t-143 54q-180 0 -291 -162z" />
<glyph unicode="3" horiz-adv-x="1019" d="M49 199l141 139q51 -75 127 -118.5t166 -43.5q112 0 170 58.5t58 158.5q0 108 -65.5 156.5t-176.5 48.5q-77 0 -117 -4v205q20 -2 113 -2q103 0 165 48.5t62 141.5q0 97 -59 148t-156 51q-163 0 -276 -148l-135 129q70 103 180.5 161t247.5 58q192 0 306.5 -94.5 t114.5 -271.5q0 -119 -73.5 -205.5t-177.5 -107.5q107 -16 189.5 -108t82.5 -226q0 -177 -120 -287.5t-324 -110.5q-148 0 -263.5 62.5t-179.5 161.5z" />
<glyph unicode="4" horiz-adv-x="1009" d="M45 315v195l487 856h289v-850h144v-201h-144v-315h-225v315h-551zM250 516h346v612z" />
<glyph unicode="5" horiz-adv-x="1052" d="M92 195l141 143q106 -162 287 -162q101 0 163 73.5t62 178.5q0 119 -57.5 185.5t-157.5 66.5q-136 0 -235 -119l-166 47v758h770v-199h-543v-407q42 52 108.5 84.5t143.5 32.5q158 0 262.5 -118t104.5 -325q0 -202 -124.5 -330.5t-324.5 -128.5q-283 0 -434 220z" />
<glyph unicode="6" horiz-adv-x="1050" d="M80 682q0 118 20 222.5t61.5 193t101.5 152.5t144 100t185 36q105 0 192 -41.5t144 -115.5l-115 -164q-84 121 -219 121q-91 0 -157.5 -68.5t-97 -172.5t-30.5 -226v-33q39 77 120 131.5t177 54.5q160 0 266.5 -115.5t106.5 -324.5q0 -194 -117 -325.5t-307 -131.5 q-102 0 -183 38t-135 102.5t-90 155.5t-51.5 193t-15.5 218zM311 508q3 -59 16 -112.5t38 -105.5t71 -83t107 -31q67 0 115.5 38t70 93t21.5 117q0 130 -59 192t-152 62q-70 0 -130 -48t-98 -122z" />
<glyph unicode="7" horiz-adv-x="921" d="M47 1167v199h832v-158l-435 -1208h-245l424 1167h-576z" />
<glyph unicode="8" horiz-adv-x="1042" d="M78 344q0 123 78 220.5t190 140.5q-107 39 -178.5 123.5t-71.5 205.5q0 72 24 131t64.5 99.5t95.5 68.5t116 40.5t126 12.5t125.5 -12.5t115 -40.5t95 -68.5t64.5 -99.5t24 -131q0 -121 -71 -205.5t-177 -123.5q111 -43 190 -141t79 -220q0 -171 -123.5 -270t-321.5 -99 q-200 0 -322 98.5t-122 270.5zM305 375q0 -92 61.5 -145.5t155.5 -53.5q91 0 153 53.5t62 145.5q0 53 -25.5 99t-62 74t-70 44.5t-57.5 19.5q-24 -3 -58 -19.5t-71 -44.5t-62.5 -74t-25.5 -99zM324 997q0 -39 15.5 -74t38.5 -57.5t51.5 -40t51 -26.5t41.5 -13q19 4 41 13 t51 26.5t51.5 40t38 57.5t15.5 74q0 87 -54 138t-143 51q-90 0 -144 -51t-54 -138z" />
<glyph unicode="9" horiz-adv-x="1050" d="M72 932q0 194 117 325.5t307 131.5q102 0 183 -38t135 -102.5t90 -155.5t51.5 -193t15.5 -218q0 -118 -20 -223t-61.5 -193.5t-101.5 -152.5t-144 -100t-185 -36q-105 0 -192 42t-144 116l115 164q42 -61 93.5 -91t125.5 -30q70 0 126 40t89.5 106.5t51 148.5t17.5 172 v33q-39 -77 -120 -131.5t-177 -54.5q-160 0 -266 115t-106 325zM301 940q0 -130 59 -192t152 -62q69 0 128 47.5t99 122.5q-3 59 -15.5 112.5t-37.5 105.5t-70.5 83t-105.5 31q-100 0 -154.5 -74.5t-54.5 -173.5z" />
<glyph unicode=":" horiz-adv-x="487" d="M111 117q0 55 40.5 95t96.5 40q57 0 97 -39.5t40 -95.5q0 -57 -40 -97t-97 -40q-56 0 -96.5 40t-40.5 97zM111 866q0 56 41 97t96 41q57 0 97 -41t40 -97t-40 -96.5t-97 -40.5q-56 0 -96.5 40.5t-40.5 96.5z" />
<glyph unicode=";" horiz-adv-x="495" d="M111 123q0 56 39 95.5t94 39.5q64 0 107.5 -48.5t43.5 -131.5q0 -102 -50.5 -192t-135.5 -150l-92 76q51 32 92.5 86.5t50.5 105.5q-8 -4 -33 -4q-50 0 -83 34.5t-33 88.5zM111 866q0 57 40.5 97.5t96.5 40.5q57 0 97 -40.5t40 -97.5q0 -56 -40 -96.5t-97 -40.5 q-56 0 -96.5 40.5t-40.5 96.5z" />
<glyph unicode="&#x3c;" horiz-adv-x="903" d="M59 612v146l785 360v-157l-627 -277l627 -272v-158z" />
<glyph unicode="=" horiz-adv-x="903" d="M59 422v133h785v-133h-785zM59 813v133h785v-133h-785z" />
<glyph unicode="&#x3e;" horiz-adv-x="903" d="M59 254v158l629 272l-629 277v157l785 -360v-146z" />
<glyph unicode="?" horiz-adv-x="798" d="M45 1227q137 159 356 159q160 0 257.5 -86t97.5 -219q0 -65 -22.5 -122.5t-56 -96t-73 -77.5t-73 -70.5t-56 -72.5t-22.5 -85q0 -55 41 -96l-170 -64q-64 70 -64 176q0 67 27.5 122.5t66.5 94t78 74.5t66.5 80.5t27.5 95.5q0 61 -43 104.5t-121 43.5q-120 0 -204 -105z M260 117q0 55 40.5 95t96.5 40q57 0 97.5 -39.5t40.5 -95.5q0 -57 -40.5 -97t-97.5 -40q-56 0 -96.5 40t-40.5 97z" />
<glyph unicode="@" horiz-adv-x="1439" d="M72 471q0 109 28.5 215.5t78.5 198t121 170t153.5 134t179.5 87t196 31.5q240 0 389.5 -159t149.5 -409q0 -100 -20 -190t-54.5 -157t-79.5 -117t-96.5 -75.5t-103.5 -25.5q-76 0 -124 42.5t-56 107.5l-3 14q-50 -73 -118.5 -118.5t-149.5 -45.5q-112 0 -183 77.5 t-71 221.5q0 138 57 264.5t156.5 205.5t214.5 79q76 0 128 -39.5t77 -103.5l23 110h182l-113 -530q-4 -20 -4 -47q-3 -97 72 -97q27 0 58 27t60 76.5t48.5 134t19.5 186.5q0 226 -126.5 360t-336.5 134q-135 0 -260.5 -64.5t-216 -170t-144.5 -244t-54 -281.5 q0 -155 60 -278.5t173.5 -195t261.5 -71.5q172 0 336 115l39 -57q-184 -129 -385 -129q-251 0 -407 171.5t-156 442.5zM500 494q0 -79 36 -125.5t103 -46.5q119 0 215 149l59 281q-14 49 -50 85.5t-91 36.5q-79 0 -143 -60t-96.5 -146.5t-32.5 -173.5z" />
<glyph unicode="A" d="M6 0l410 1366h270l410 -1366h-244l-76 270h-450l-76 -270h-244zM371 471h360l-180 653z" />
<glyph unicode="B" horiz-adv-x="1107" d="M131 0v1366h518q167 0 259.5 -98t92.5 -250q0 -124 -60 -206.5t-155 -106.5q101 -15 169.5 -112.5t68.5 -223.5q0 -166 -92.5 -267.5t-267.5 -101.5h-533zM356 199h252q89 0 136 52t47 148q0 86 -47.5 142.5t-135.5 56.5h-252v-399zM356 797h242q85 0 127.5 49.5 t42.5 134.5q0 84 -43 135t-127 51h-242v-370z" />
<glyph unicode="C" horiz-adv-x="1124" d="M80 682q0 206 67.5 365.5t195 250.5t296.5 91q291 0 434 -302l-186 -83q-38 85 -101.5 134.5t-146.5 49.5q-149 0 -238.5 -141.5t-89.5 -364.5t89.5 -364.5t238.5 -141.5q86 0 150 55t98 146l188 -82q-144 -320 -436 -320q-169 0 -296.5 91t-195 250.5t-67.5 365.5z" />
<glyph unicode="D" horiz-adv-x="1196" d="M131 0v1366h408q181 0 313 -89.5t198 -243t66 -351.5q0 -200 -65.5 -353t-197 -241t-312.5 -88h-410zM356 199h183q165 0 255.5 132.5t90.5 350.5q0 223 -89 354t-257 131h-183v-968z" />
<glyph unicode="E" horiz-adv-x="968" d="M131 0v1366h750v-199h-525v-370h510v-199h-510v-399h525v-199h-750z" />
<glyph unicode="F" horiz-adv-x="950" d="M131 0v1366h750v-199h-525v-370h510v-199h-510v-598h-225z" />
<glyph unicode="G" horiz-adv-x="1183" d="M80 682q0 318 153.5 512.5t405.5 194.5q294 0 436 -291l-182 -88q-41 81 -105 129.5t-149 48.5q-148 0 -238 -136.5t-90 -369.5q0 -231 90.5 -368.5t237.5 -137.5q72 0 133 28t98 70v254h-290v199h503v-543q-172 -209 -444 -209q-253 0 -406 195t-153 512z" />
<glyph unicode="H" horiz-adv-x="1218" d="M131 0v1366h225v-563h506v563h225v-1366h-225v602h-506v-602h-225z" />
<glyph unicode="I" horiz-adv-x="487" d="M131 0v1366h225v-1366h-225z" />
<glyph unicode="J" horiz-adv-x="839" d="M16 88l88 178q76 -90 183 -90q91 0 143.5 55t52.5 154v981h228v-989q0 -200 -109.5 -301t-294.5 -101q-178 0 -291 113z" />
<glyph unicode="K" horiz-adv-x="1097" d="M131 0v1366h225v-657l428 657h265l-447 -645l481 -721h-268l-352 563l-107 -157v-406h-225z" />
<glyph unicode="L" horiz-adv-x="878" d="M123 0v1366h225v-1167h477v-199h-702z" />
<glyph unicode="M" horiz-adv-x="1462" d="M131 0v1366h305l295 -889l297 889h303v-1366h-223v999l-334 -999h-86l-332 999v-999h-225z" />
<glyph unicode="N" horiz-adv-x="1216" d="M131 0v1366h229l498 -895v895h227v-1366h-217l-512 922v-922h-225z" />
<glyph unicode="O" horiz-adv-x="1259" d="M80 682q0 151 37.5 280t106 224t173 149t232.5 54t232.5 -54t174 -149t107 -224.5t37.5 -279.5t-37.5 -279.5t-107 -224.5t-174 -149t-232.5 -54t-232.5 54t-173 149t-106 224t-37.5 280zM311 682q0 -221 84.5 -363.5t233.5 -142.5q100 0 172.5 67.5t108.5 181t36 257.5 q0 223 -84 364.5t-233 141.5t-233.5 -142t-84.5 -364z" />
<glyph unicode="P" horiz-adv-x="1054" d="M131 0v1366h465q98 0 176.5 -34t127.5 -93t75 -135t26 -162q0 -87 -26 -163t-75.5 -134.5t-127.5 -92.5t-176 -34h-240v-518h-225zM356 717h213q92 0 146.5 61.5t54.5 163.5q0 101 -54.5 163t-146.5 62h-213v-450z" />
<glyph unicode="Q" horiz-adv-x="1259" d="M80 682q0 151 37.5 280t106 224t173 149t232.5 54t232.5 -54t174 -149t107 -224.5t37.5 -279.5q0 -175 -49.5 -319.5t-143.5 -239.5l62 -98l-158 -97l-57 88q-93 -41 -205 -41q-128 0 -232.5 54t-173 149t-106 224t-37.5 280zM311 682q0 -221 84.5 -363.5t233.5 -142.5 q43 0 92 17l-150 237l160 98l131 -209q84 137 84 363q0 223 -84 364.5t-233 141.5t-233.5 -142t-84.5 -364z" />
<glyph unicode="R" horiz-adv-x="1095" d="M131 0v1366h471q179 0 290.5 -116.5t111.5 -305.5q0 -85 -22.5 -155.5t-60 -116.5t-81 -75t-92.5 -42l266 -555h-254l-234 516h-170v-516h-225zM356 717h213q92 0 146.5 61.5t54.5 163.5t-54.5 163.5t-146.5 61.5h-213v-450z" />
<glyph unicode="S" horiz-adv-x="999" d="M45 150l115 176q59 -67 143.5 -108.5t181.5 -41.5q104 0 159.5 53t55.5 131q0 57 -34 100t-88 72t-119.5 56.5t-131 62t-119.5 78t-88 114.5t-34 163q0 163 118 273t308 110q243 0 393 -150l-108 -172q-116 119 -291 119q-84 0 -136.5 -45.5t-52.5 -120.5q0 -50 34 -89 t88 -67t119.5 -56t131.5 -64t120 -81.5t88 -119t34 -166.5q0 -84 -28.5 -156.5t-83 -127.5t-140 -86.5t-193.5 -31.5q-274 0 -442 175z" />
<glyph unicode="T" horiz-adv-x="950" d="M47 1167v199h854v-199h-313v-1167h-226v1167h-315z" />
<glyph unicode="U" horiz-adv-x="1214" d="M131 461v905h227v-907q0 -137 65 -210t185 -73q119 0 183.5 73t64.5 210v907h227v-905q0 -231 -126.5 -358.5t-348.5 -127.5q-223 0 -350 127.5t-127 358.5z" />
<glyph unicode="V" d="M6 1366h244l301 -1096l301 1096h244l-410 -1366h-270z" />
<glyph unicode="W" horiz-adv-x="1529" d="M20 1366h244l197 -1018l213 1018h182l213 -1018l197 1018h243l-309 -1366h-237l-197 979l-199 -979h-235z" />
<glyph unicode="X" d="M6 0l406 698l-383 668h262l260 -492l260 492h262l-383 -666l408 -700h-262l-285 518l-285 -518h-260z" />
<glyph unicode="Y" horiz-adv-x="1073" d="M0 1366h250l287 -584l286 584h250l-424 -797v-569h-225v569z" />
<glyph unicode="Z" horiz-adv-x="976" d="M78 0v188l532 979h-532v199h807v-184l-537 -983h551v-199h-821z" />
<glyph unicode="[" horiz-adv-x="468" d="M80 -389v1778h354v-142h-203v-1495h203v-141h-354z" />
<glyph unicode="\" horiz-adv-x="542" d="M0 1407h152l393 -1448h-152z" />
<glyph unicode="]" horiz-adv-x="468" d="M35 -248h203v1495h-203v142h354v-1778h-354v141z" />
<glyph unicode="^" horiz-adv-x="790" d="M39 682l280 684h152l281 -684h-156l-201 530l-202 -530h-154z" />
<glyph unicode="_" horiz-adv-x="864" d="M-6 -82h876v-141h-876v141z" />
<glyph unicode="`" horiz-adv-x="415" d="M0 1434h188l228 -295h-140z" />
<glyph unicode="a" horiz-adv-x="960" d="M70 303q0 153 88 238.5t215 85.5q80 0 150.5 -31t111.5 -92v147q0 90 -50.5 139.5t-142.5 49.5q-135 0 -247 -115l-80 143q72 74 167 110t197 36q165 0 263 -82t98 -254v-678h-205v104q-43 -63 -113 -96t-149 -33q-125 0 -214 89t-89 239zM274 301q0 -80 47.5 -132 t124.5 -52q61 0 111 25t78 77v162q-55 104 -189 104q-77 0 -124.5 -52t-47.5 -132z" />
<glyph unicode="b" horiz-adv-x="1013" d="M121 0v1366h203v-510q44 77 112.5 117.5t143.5 40.5q167 0 264.5 -141.5t97.5 -378.5q0 -239 -97.5 -379t-264.5 -140q-75 0 -143.5 41.5t-112.5 114.5v-131h-203zM324 291q28 -58 82.5 -96.5t113.5 -38.5q102 0 157.5 94.5t55.5 243.5q0 151 -55.5 245.5t-157.5 94.5 q-58 0 -112.5 -40t-83.5 -98v-405z" />
<glyph unicode="c" horiz-adv-x="854" d="M72 496q0 226 119.5 372t314.5 146q197 0 303 -133l-102 -140q-72 93 -179 93q-114 0 -179.5 -96t-65.5 -242t66 -243t179 -97q105 0 179 92l102 -139q-104 -134 -303 -134q-195 0 -314.5 147t-119.5 374z" />
<glyph unicode="d" horiz-adv-x="1013" d="M72 494q0 236 98 378t264 142q76 0 144.5 -40.5t111.5 -117.5v510h203v-1366h-203v131q-44 -73 -112.5 -114.5t-143.5 -41.5q-167 0 -264.5 140t-97.5 379zM283 494q0 -149 55 -243.5t158 -94.5q59 0 113 39t81 96v407q-27 57 -81.5 96.5t-112.5 39.5q-103 0 -158 -94.5 t-55 -245.5z" />
<glyph unicode="e" horiz-adv-x="974" d="M72 496q0 144 50.5 261t148.5 187t227 70q131 0 225.5 -70t140 -187t45.5 -268v-61h-630q6 -127 73.5 -206t186.5 -79q62 0 122 28t103 79l98 -123q-65 -73 -154 -112.5t-190 -39.5q-202 0 -324 144.5t-122 376.5zM276 573h437q-1 49 -13 95t-36 87t-67.5 66t-100.5 25 q-45 0 -82 -17t-61.5 -44t-42 -63.5t-25.5 -73.5t-9 -75z" />
<glyph unicode="f" horiz-adv-x="559" d="M33 811v178h129v90q0 146 73.5 226.5t204.5 80.5q128 0 197 -69l-68 -146q-36 39 -92 39q-54 0 -83 -34.5t-29 -96.5v-90h163v-178h-163v-811h-203v811h-129z" />
<glyph unicode="g" horiz-adv-x="1013" d="M72 506q0 235 97.5 371.5t264.5 136.5q76 0 143.5 -40.5t112.5 -117.5v133h203v-973q0 -93 -24 -166.5t-64 -120t-96.5 -76.5t-116 -42t-127.5 -12q-110 0 -194.5 29.5t-157.5 97.5l86 159q98 -110 256 -110q102 0 168.5 59t66.5 182v144q-44 -75 -112.5 -117.5 t-143.5 -42.5q-168 0 -265 134t-97 372zM283 506q0 -148 54.5 -237t158.5 -89q57 0 112 39t82 96v383q-27 57 -82 96.5t-112 39.5q-104 0 -158.5 -90t-54.5 -238z" />
<glyph unicode="h" horiz-adv-x="995" d="M121 0v1366h205v-510q43 65 122 111.5t166 46.5q260 0 260 -266v-748h-202v676q0 158 -144 158q-62 0 -116.5 -41t-85.5 -97v-696h-205z" />
<glyph unicode="i" horiz-adv-x="444" d="M94 1241q0 53 38 90t91 37t90 -36.5t37 -90.5q0 -53 -37 -90t-90 -37t-91 37.5t-38 89.5zM121 0v989h203v-989h-203z" />
<glyph unicode="j" horiz-adv-x="444" d="M-139 -338l57 158q42 -45 96 -45q50 0 78.5 34.5t28.5 106.5v1073h203v-1073q0 -317 -289 -317q-58 0 -98 15t-76 48zM94 1241q0 53 38 90t91 37t90 -36.5t37 -90.5q0 -53 -37 -90t-90 -37t-91 37.5t-38 89.5z" />
<glyph unicode="k" horiz-adv-x="935" d="M121 0v1366h203v-862l352 485h237l-327 -444l334 -545h-240l-236 414l-120 -160v-254h-203z" />
<glyph unicode="l" horiz-adv-x="444" d="M121 0v1366h203v-1366h-203z" />
<glyph unicode="m" horiz-adv-x="1480" d="M121 0v989h203v-133q35 58 113 108t163 50q94 0 154 -45.5t77 -128.5q39 71 119 122.5t168 51.5q116 0 179 -64t63 -196v-754h-203v686q0 148 -125 148q-58 0 -109.5 -41t-80.5 -97v-696h-203v686q0 148 -125 148q-57 0 -107.5 -41t-82.5 -97v-696h-203z" />
<glyph unicode="n" horiz-adv-x="995" d="M121 0v989h203v-133q45 65 124 111.5t166 46.5q131 0 195.5 -69.5t64.5 -201.5v-743h-204v674q0 160 -142 160q-62 0 -117 -40.5t-87 -97.5v-696h-203z" />
<glyph unicode="o" horiz-adv-x="1003" d="M72 496q0 142 48 258t147 188t235 72t235 -72t147 -188t48 -258q0 -106 -28 -199.5t-81 -165.5t-136 -114t-185 -42t-185 42t-136 114t-81 165.5t-28 199.5zM283 496q0 -94 22.5 -168.5t73 -123t123.5 -48.5t123 48.5t72 123t22 168.5q0 93 -22 167t-72 122.5t-123 48.5 t-123.5 -48.5t-73 -122.5t-22.5 -167z" />
<glyph unicode="p" horiz-adv-x="1011" d="M121 -377v1366h203v-131q44 73 112.5 114.5t143.5 41.5q168 0 265 -139t97 -379q0 -238 -97 -379.5t-265 -141.5q-76 0 -143.5 40.5t-112.5 117.5v-510h-203zM324 291q27 -56 82.5 -95.5t113.5 -39.5q102 0 156.5 94.5t54.5 245.5q0 149 -54.5 243.5t-156.5 94.5 q-58 0 -112.5 -38.5t-83.5 -95.5v-409z" />
<glyph unicode="q" horiz-adv-x="1011" d="M70 496q0 240 97 379t265 139q75 0 143.5 -41.5t112.5 -114.5v131h203v-1366h-203v510q-45 -77 -112.5 -117.5t-143.5 -40.5q-168 0 -265 141.5t-97 379.5zM281 496q0 -151 55 -245.5t158 -94.5q57 0 112 39.5t82 95.5v409q-28 57 -82.5 95.5t-111.5 38.5 q-103 0 -158 -94.5t-55 -243.5z" />
<glyph unicode="r" horiz-adv-x="630" d="M121 0v989h203v-145q46 74 119.5 121t154.5 47v-203q-24 6 -53 6q-61 0 -125.5 -40.5t-95.5 -96.5v-678h-203z" />
<glyph unicode="s" horiz-adv-x="823" d="M43 117l92 143q46 -53 118.5 -88t147.5 -35q77 0 121.5 35t44.5 94q0 39 -27 67.5t-70.5 47t-95.5 36.5t-104.5 42t-96 56.5t-70.5 87.5t-27 128q0 121 91.5 202t250.5 81q193 0 327 -127l-88 -139q-37 45 -101 74.5t-136 29.5q-67 0 -109.5 -33.5t-42.5 -81.5 q0 -35 27.5 -61.5t71 -44.5t96.5 -35.5t106 -43t96.5 -59t71 -90.5t27.5 -131q0 -131 -97.5 -214t-260.5 -83q-230 0 -363 142z" />
<glyph unicode="t" horiz-adv-x="577" d="M29 811v178h129v271h202v-271h164v-178h-164v-547q0 -108 76 -108q53 0 78 32l49 -155q-65 -58 -178 -58q-227 0 -227 246v590h-129z" />
<glyph unicode="u" horiz-adv-x="995" d="M121 242v747h203v-676q0 -84 36.5 -120.5t106.5 -36.5q62 0 116.5 38.5t86.5 94.5v700h202v-989h-202v129q-45 -65 -122.5 -109.5t-166.5 -44.5q-260 0 -260 267z" />
<glyph unicode="v" horiz-adv-x="884" d="M2 989h219l221 -745l224 745h217l-332 -989h-219z" />
<glyph unicode="w" horiz-adv-x="1370" d="M14 989h211l174 -721l189 721h188l195 -721l172 721h213l-266 -989h-213l-193 725l-190 -725h-213z" />
<glyph unicode="x" horiz-adv-x="872" d="M12 0l297 504l-280 485h223l184 -340l185 340h223l-283 -485l299 -504h-223l-201 358l-200 -358h-224z" />
<glyph unicode="y" horiz-adv-x="884" d="M2 989h219l221 -743l224 743h217l-394 -1173q-41 -119 -110.5 -167t-179.5 -50q-67 0 -111 14l31 180q22 -14 63 -14q43 0 69.5 19t43.5 65l43 119z" />
<glyph unicode="z" horiz-adv-x="819" d="M78 0v156l399 655h-399v178h655v-149l-401 -662h409v-178h-663z" />
<glyph unicode="{" horiz-adv-x="499" d="M10 438v123q52 0 79.5 39.5t27.5 99.5v422q0 117 76.5 192t179.5 75h92v-142h-92q-44 0 -74.5 -34.5t-30.5 -90.5v-440q0 -142 -94 -182q94 -40 94 -183v-440q0 -54 30.5 -89.5t74.5 -35.5h92v-141h-92q-103 0 -179.5 74.5t-76.5 191.5v422q0 60 -27.5 99.5t-79.5 39.5z " />
<glyph unicode="|" horiz-adv-x="401" d="M131 -41v1448h141v-1448h-141z" />
<glyph unicode="}" horiz-adv-x="499" d="M35 -248h92q44 0 74 35t30 90v440q0 142 95 183q-95 41 -95 182v440q0 56 -30 90.5t-74 34.5h-92v142h92q103 0 179.5 -75t76.5 -192v-422q0 -60 27 -99.5t79 -39.5v-123q-52 0 -79 -39.5t-27 -99.5v-422q0 -117 -76.5 -191.5t-179.5 -74.5h-92v141z" />
<glyph unicode="~" horiz-adv-x="937" d="M55 870q4 62 10.5 114.5t18.5 112t32 105t47.5 83.5t68 58.5t90.5 20.5q66 0 109.5 -39t63.5 -95t34 -111.5t34.5 -94.5t52.5 -39q55 0 81.5 91.5t41.5 289.5l144 -14q-5 -64 -11.5 -115t-18.5 -112t-31.5 -105.5t-46.5 -83.5t-68 -59.5t-91 -20.5q-55 0 -95 28t-59.5 70 t-35.5 90.5t-26.5 90.5t-30 70t-47.5 28q-55 0 -80.5 -90.5t-42.5 -288.5z" />
<glyph unicode="&#xa1;" horiz-adv-x="495" d="M111 872q0 57 40 97.5t97 40.5q56 0 96.5 -40.5t40.5 -97.5q0 -55 -40.5 -95t-96.5 -40q-57 0 -97 39.5t-40 95.5zM123 -377l37 955h174l39 -955h-250z" />
<glyph unicode="&#xa2;" horiz-adv-x="854" d="M72 496q0 196 91.5 334.5t248.5 173.5v153h151v-147q155 -16 246 -129l-102 -140q-60 78 -144 90v-673q81 12 144 90l102 -139q-87 -112 -246 -129v-185h-151v191q-157 33 -248.5 172.5t-91.5 337.5zM283 496q0 -103 33.5 -184t95.5 -122v609q-62 -41 -95.5 -121.5 t-33.5 -181.5z" />
<glyph unicode="&#xa3;" horiz-adv-x="966" d="M53 555v137h142q-31 50 -48.5 83t-34 89.5t-16.5 114.5q0 113 59 207.5t155.5 147t207.5 52.5q139 0 239 -63.5t142 -183.5l-180 -92q-23 70 -70 111.5t-114 41.5q-80 0 -137.5 -61.5t-57.5 -163.5q0 -38 5 -70t19 -64.5t22 -49t30 -53t28 -46.5h228v-137h-174 q6 -35 6 -70q0 -74 -37.5 -146t-95.5 -116q39 19 90 19q55 0 126 -33t115 -33q54 0 97 21t65 51l80 -180q-38 -41 -105.5 -68t-150.5 -27q-54 0 -100.5 14t-74 31t-65.5 31t-77 14q-84 0 -205 -77l-72 159q95 52 151 128.5t56 158.5q0 52 -27 123h-221z" />
<glyph unicode="&#xa4;" horiz-adv-x="1069" d="M74 281l114 114q-102 127 -102 287q0 163 102 287l-114 116l57 58l117 -115q120 102 287 102q162 0 286 -102l115 115l59 -58l-114 -116q102 -124 102 -287q0 -160 -102 -287l114 -114l-59 -60l-115 117q-124 -105 -286 -105q-163 0 -287 105l-117 -117zM184 682 q0 -145 103 -247.5t248 -102.5t247.5 102.5t102.5 247.5q0 146 -102.5 248t-247.5 102t-248 -102t-103 -248z" />
<glyph unicode="&#xa5;" horiz-adv-x="1073" d="M0 1366h250l287 -584l286 584h250l-354 -664h305v-133h-375v-194h375v-131h-375v-244h-225v244h-377v131h377v194h-377v133h305z" />
<glyph unicode="&#xa6;" horiz-adv-x="401" d="M131 -41v647h141v-647h-141zM131 760v647h141v-647h-141z" />
<glyph unicode="&#xa7;" horiz-adv-x="831" d="M45 -23l90 134q43 -50 113 -88.5t149 -38.5q77 0 123.5 38.5t46.5 100.5q0 43 -27 75t-70.5 52.5t-95.5 39.5t-104.5 43.5t-96 56.5t-70.5 85.5t-27 124.5q0 89 54.5 154.5t137.5 91.5q-99 50 -145.5 114.5t-46.5 153.5q0 118 93.5 195t240.5 77q211 0 333 -129l-86 -122 q-95 106 -233 106q-70 0 -113 -35t-43 -92q0 -39 27.5 -68t71 -48.5t96.5 -38t106 -43t96.5 -57t71 -87.5t27.5 -127q0 -80 -42 -147t-122 -107q82 -46 123 -107.5t41 -150.5q0 -133 -101 -216t-257 -83q-221 0 -361 143zM264 629q0 -64 47 -102.5t144 -77.5q118 55 118 157 q0 69 -42.5 110t-110.5 68q-156 -37 -156 -155z" />
<glyph unicode="&#xa8;" horiz-adv-x="569" d="M-16 1243q0 47 33.5 81t80.5 34t81 -34t34 -81t-34 -81t-81 -34t-80.5 34t-33.5 81zM356 1243q0 47 34 81t81 34t82 -34t35 -81t-35 -81t-82 -34t-81 34t-34 81z" />
<glyph unicode="&#xa9;" horiz-adv-x="1593" d="M90 684q0 192 95 355t258 257.5t354 94.5q144 0 275 -56t225 -150.5t150 -225.5t56 -275q0 -143 -56 -274t-150 -226t-225 -151t-275 -56q-191 0 -354 95t-258 258t-95 354zM158 684q0 -129 51 -247t137 -204t204 -137t247 -51t247 51t204 137t137 204t51 247t-51 247 t-137 204t-204 137t-247 51t-247 -51t-204 -137t-137 -204t-51 -247zM379 686q0 187 123.5 310.5t302.5 123.5q183 0 299 -135l-55 -57q-40 54 -106 86.5t-138 32.5q-142 0 -242 -101.5t-100 -259.5q0 -154 101 -258t241 -104q73 0 138.5 32t105.5 86l57 -55 q-118 -137 -301 -137q-178 0 -302 125.5t-124 310.5z" />
<glyph unicode="&#xaa;" horiz-adv-x="692" d="M59 864q0 98 60 153.5t145 55.5q116 0 180 -78v92q0 59 -35.5 91t-93.5 32q-95 0 -168 -82l-59 101q101 98 254 98q115 0 183.5 -57t68.5 -178v-424h-150v67q-66 -84 -180 -84q-84 0 -144.5 57.5t-60.5 155.5zM209 866q0 -54 31 -85t82 -31q84 0 122 67v96 q-39 68 -122 68q-51 0 -82 -32t-31 -83z" />
<glyph unicode="&#xab;" horiz-adv-x="866" d="M61 498l256 362h179l-256 -362l256 -369h-179zM373 498l256 362h176l-256 -362l256 -369h-176z" />
<glyph unicode="&#xac;" horiz-adv-x="911" d="M59 813v133h785v-524h-137v391h-648z" />
<glyph unicode="&#xad;" horiz-adv-x="552" d="M61 408v176h431v-176h-431z" />
<glyph unicode="&#xae;" horiz-adv-x="1011" d="M72 952q0 181 127 307.5t307 126.5q119 0 219 -57.5t157.5 -157.5t57.5 -219q0 -180 -126.5 -307t-307.5 -127q-180 0 -307 127t-127 307zM133 952q0 -154 109 -263t264 -109t264 109t109 263q0 156 -108.5 264.5t-264.5 108.5t-264.5 -108.5t-108.5 -264.5zM340 702v498 h203q65 0 112 -42t47 -109q0 -72 -46 -110t-81 -38l134 -199h-84l-129 197h-88v-197h-68zM408 961h135q34 0 62 25.5t28 62.5q0 39 -28 65.5t-62 26.5h-135v-180z" />
<glyph unicode="&#xaf;" horiz-adv-x="632" d="M0 1210v121h633v-121h-633z" />
<glyph unicode="&#xb0;" horiz-adv-x="614" d="M45 1122q0 109 76.5 186.5t183.5 77.5q109 0 186.5 -77.5t77.5 -186.5q0 -107 -77.5 -183.5t-186.5 -76.5q-107 0 -183.5 76.5t-76.5 183.5zM164 1122q0 -58 41 -99.5t100 -41.5q60 0 103 41.5t43 99.5q0 60 -43 103t-103 43q-58 0 -99.5 -43t-41.5 -103z" />
<glyph unicode="&#xb1;" horiz-adv-x="903" d="M59 33v133h785v-133h-785zM59 645v131h320v352h145v-352h320v-131h-320v-366h-145v366h-320z" />
<glyph unicode="&#xb2;" horiz-adv-x="692" d="M63 1561q103 133 283 133q123 0 202 -63.5t79 -176.5q0 -49 -19 -97t-65.5 -107t-102 -116t-149.5 -145h340v-127h-551v117q237 214 313 303.5t76 163.5q0 57 -36.5 89t-92.5 32q-57 0 -106.5 -28.5t-79.5 -74.5z" />
<glyph unicode="&#xb3;" horiz-adv-x="692" d="M55 981l92 96q34 -47 85 -74.5t106 -27.5q67 0 103 32.5t36 88.5q0 123 -158 123q-59 0 -71 -2v126q12 -2 67 -2q152 0 152 113q0 55 -37 84t-98 29q-109 0 -180 -92l-86 88q97 131 278 131q127 0 202 -58t75 -163q0 -72 -48 -124t-114 -63q68 -10 121 -64t53 -135 q0 -107 -79 -173t-210 -66q-98 0 -173.5 36.5t-115.5 96.5z" />
<glyph unicode="&#xb4;" horiz-adv-x="415" d="M0 1139l225 295h191l-277 -295h-139z" />
<glyph unicode="&#xb6;" horiz-adv-x="919" d="M55 1014q0 146 103.5 249t249.5 103h389v-1571h-109v1462h-172v-1462h-108v867q-146 0 -249.5 103t-103.5 249z" />
<glyph unicode="&#xb7;" horiz-adv-x="495" d="M111 502q0 56 40 95.5t97 39.5t97 -39.5t40 -95.5q0 -57 -40 -97t-97 -40t-97 40t-40 97z" />
<glyph unicode="&#xb8;" horiz-adv-x="399" d="M0 -332l43 88q72 -57 145 -57q42 0 72.5 21t30.5 55q0 29 -16.5 46t-45.5 17q-37 0 -61 -31l-80 46l62 170h108l-51 -132q27 21 65 21q54 0 90.5 -38.5t36.5 -100.5q0 -75 -58.5 -121.5t-147.5 -46.5q-58 0 -109.5 17.5t-83.5 45.5z" />
<glyph unicode="&#xb9;" horiz-adv-x="505" d="M23 1442l237 239h137v-819h-157v617l-127 -131z" />
<glyph unicode="&#xba;" horiz-adv-x="724" d="M63 989q0 143 80 240.5t217 97.5q141 0 221.5 -97.5t80.5 -240.5q0 -142 -81 -240t-221 -98q-137 0 -217 98t-80 240zM219 989q0 -96 36 -155.5t105 -59.5q72 0 109 59.5t37 155.5q0 95 -37 154t-109 59q-69 0 -105 -59t-36 -154z" />
<glyph unicode="&#xbb;" horiz-adv-x="866" d="M61 129l256 369l-256 362h179l256 -362l-256 -369h-179zM373 129l256 369l-256 362h176l256 -362l-256 -369h-176z" />
<glyph unicode="&#xbc;" horiz-adv-x="1458" d="M23 1126l237 240h137v-819h-157v616l-127 -131zM279 0l718 1366h117l-721 -1366h-114zM815 193v116l303 510h205v-502h90v-124h-90v-193h-158v193h-350zM961 317h204v349z" />
<glyph unicode="&#xbd;" horiz-adv-x="1529" d="M23 1126l237 240h137v-819h-157v616l-127 -131zM279 0l718 1366h117l-721 -1366h-114zM901 698q103 133 283 133q123 0 201.5 -63t78.5 -176q0 -49 -19 -97t-65.5 -107t-102 -116t-149.5 -145h340v-127h-550v117q237 214 313 303.5t76 163.5q0 57 -36.5 89t-92.5 32 q-57 0 -107 -28.5t-80 -74.5z" />
<glyph unicode="&#xbe;" horiz-adv-x="1597" d="M55 666l92 96q34 -48 85 -75.5t106 -27.5q67 0 103 32.5t36 88.5q0 123 -158 123q-59 0 -71 -2v127q12 -2 67 -2q152 0 152 113q0 55 -37 83.5t-98 28.5q-109 0 -180 -92l-86 88q97 131 278 131q127 0 202 -58t75 -163q0 -72 -48 -123.5t-114 -62.5q68 -10 121 -64 t53 -135q0 -107 -79 -173.5t-210 -66.5q-97 0 -173 37t-116 97zM416 0l719 1366h116l-721 -1366h-114zM952 193v116l303 510h205v-502h90v-124h-90v-193h-157v193h-351zM1098 317h205v349z" />
<glyph unicode="&#xbf;" horiz-adv-x="694" d="M45 -94q0 65 22.5 122t55.5 95.5t72.5 77.5t72.5 70t55.5 72t22.5 85q0 58 -41 96l172 64q62 -68 62 -174q0 -57 -20 -106t-49.5 -82t-64 -67.5t-64 -63t-49.5 -68t-20 -82.5q0 -61 44 -104.5t120 -43.5q122 0 205 107l115 -144q-66 -78 -158 -119.5t-199 -41.5 q-161 0 -257.5 87t-96.5 220zM264 872q0 57 40.5 97.5t96.5 40.5q57 0 97.5 -40.5t40.5 -97.5q0 -56 -40.5 -95.5t-97.5 -39.5q-56 0 -96.5 40t-40.5 95z" />
<glyph unicode="&#xc0;" d="M6 0l410 1366h270l410 -1366h-244l-76 270h-450l-76 -270h-244zM274 1786h189l227 -295h-139zM371 471h360l-180 653z" />
<glyph unicode="&#xc1;" d="M6 0l410 1366h270l410 -1366h-244l-76 270h-450l-76 -270h-244zM371 471h360l-180 653zM416 1491l225 295h190l-276 -295h-139z" />
<glyph unicode="&#xc2;" d="M6 0l410 1366h270l410 -1366h-244l-76 270h-450l-76 -270h-244zM297 1491l160 295h188l166 -295h-123l-137 199l-131 -199h-123zM371 471h360l-180 653z" />
<glyph unicode="&#xc3;" d="M6 0l410 1366h270l410 -1366h-244l-76 270h-450l-76 -270h-244zM262 1499q0 125 49.5 200t139.5 75q42 0 74 -26t47.5 -57t37.5 -57t47 -26q34 0 54 38.5t20 114.5h111q0 -125 -48.5 -199.5t-138.5 -74.5q-30 0 -54 12.5t-39 30.5t-29 40t-25 40t-26 30.5t-33 12.5 q-34 0 -55 -39t-21 -115h-111zM371 471h360l-180 653z" />
<glyph unicode="&#xc4;" d="M6 0l410 1366h270l410 -1366h-244l-76 270h-450l-76 -270h-244zM250 1593q0 47 34 81t81 34t80.5 -34t33.5 -81t-33.5 -80.5t-80.5 -33.5t-81 33.5t-34 80.5zM371 471h360l-180 653zM623 1593q0 47 33.5 81t80.5 34t82 -34t35 -81t-34.5 -80.5t-82.5 -33.5 q-47 0 -80.5 33.5t-33.5 80.5z" />
<glyph unicode="&#xc5;" d="M6 0l410 1366h270l410 -1366h-244l-76 270h-450l-76 -270h-244zM358 1612q0 79 57.5 135.5t137.5 56.5q78 0 134 -56.5t56 -135.5q0 -80 -56 -137.5t-134 -57.5q-79 0 -137 57.5t-58 137.5zM371 471h360l-180 653zM455 1612q0 -40 28.5 -69.5t69.5 -29.5q39 0 66.5 29.5 t27.5 69.5t-27 68t-67 28q-41 0 -69.5 -28t-28.5 -68z" />
<glyph unicode="&#xc6;" horiz-adv-x="1585" d="M8 0l649 1366h842v-199h-522v-370h508v-199h-508v-399h522v-199h-747v270h-377l-123 -270h-244zM455 471h297v653z" />
<glyph unicode="&#xc7;" horiz-adv-x="1124" d="M80 682q0 206 67.5 365.5t195 250.5t296.5 91q291 0 434 -302l-186 -83q-38 85 -101.5 134.5t-146.5 49.5q-149 0 -238.5 -141.5t-89.5 -364.5t89.5 -364.5t238.5 -141.5q86 0 150 55t98 146l188 -82q-29 -64 -62.5 -114t-81.5 -96.5t-114 -74.5t-145 -33l-29 -77 q26 20 66 20q54 0 90.5 -38.5t36.5 -100.5q0 -75 -59 -121.5t-148 -46.5q-58 0 -109.5 17.5t-83.5 45.5l43 88q72 -57 146 -57q42 0 72 21t30 55q0 29 -16 46t-45 17q-39 0 -62 -30l-80 45l43 121q-149 18 -260 112t-169 245.5t-58 342.5z" />
<glyph unicode="&#xc8;" horiz-adv-x="968" d="M131 0v1366h750v-199h-525v-370h510v-199h-510v-399h525v-199h-750zM229 1786h189l227 -295h-139z" />
<glyph unicode="&#xc9;" horiz-adv-x="968" d="M131 0v1366h750v-199h-525v-370h510v-199h-510v-399h525v-199h-750zM373 1491l225 295h190l-276 -295h-139z" />
<glyph unicode="&#xca;" horiz-adv-x="968" d="M131 0v1366h750v-199h-525v-370h510v-199h-510v-399h525v-199h-750zM250 1491l160 295h188l166 -295h-123l-137 199l-131 -199h-123z" />
<glyph unicode="&#xcb;" horiz-adv-x="968" d="M131 0v1366h750v-199h-525v-370h510v-199h-510v-399h525v-199h-750zM207 1593q0 47 34 81t81 34t80.5 -34t33.5 -81t-33.5 -80.5t-80.5 -33.5t-81 33.5t-34 80.5zM580 1593q0 47 33.5 81t80.5 34t82 -34t35 -81t-34.5 -80.5t-82.5 -33.5q-47 0 -80.5 33.5t-33.5 80.5z " />
<glyph unicode="&#xcc;" horiz-adv-x="487" d="M-35 1786h189l227 -295h-139zM131 0v1366h225v-1366h-225z" />
<glyph unicode="&#xcd;" horiz-adv-x="487" d="M111 1491l225 295h190l-276 -295h-139zM131 0v1366h225v-1366h-225z" />
<glyph unicode="&#xce;" horiz-adv-x="487" d="M-12 1491l159 295h189l166 -295h-123l-137 199l-131 -199h-123zM131 0v1366h225v-1366h-225z" />
<glyph unicode="&#xcf;" horiz-adv-x="487" d="M-55 1593q0 47 33.5 81t80.5 34t81 -34t34 -81t-34 -80.5t-81 -33.5t-80.5 33.5t-33.5 80.5zM131 0v1366h225v-1366h-225zM317 1593q0 47 34 81t81 34t82 -34t35 -81t-34.5 -80.5t-82.5 -33.5q-47 0 -81 33.5t-34 80.5z" />
<glyph unicode="&#xd0;" horiz-adv-x="1245" d="M29 592v164h151v610h408q181 0 313 -89.5t198 -243t66 -351.5q0 -200 -65.5 -353t-197 -241t-312.5 -88h-410v592h-151zM406 199h182q165 0 255.5 132.5t90.5 350.5q0 223 -89 354t-257 131h-182v-411h237v-164h-237v-393z" />
<glyph unicode="&#xd1;" horiz-adv-x="1216" d="M131 0v1366h229l498 -895v895h227v-1366h-217l-512 922v-922h-225zM315 1499q0 125 49.5 200t139.5 75q42 0 74 -26t48 -57t38 -57t47 -26q34 0 53.5 38t19.5 115h111q0 -125 -48 -199.5t-138 -74.5q-35 0 -62.5 17t-44 41.5t-31 49t-31.5 41.5t-38 17q-34 0 -55 -39 t-21 -115h-111z" />
<glyph unicode="&#xd2;" horiz-adv-x="1259" d="M80 682q0 151 37.5 280t106 224t173 149t232.5 54t232.5 -54t174 -149t107 -224.5t37.5 -279.5t-37.5 -279.5t-107 -224.5t-174 -149t-232.5 -54t-232.5 54t-173 149t-106 224t-37.5 280zM311 682q0 -221 84.5 -363.5t233.5 -142.5q100 0 172.5 67.5t108.5 181t36 257.5 q0 223 -84 364.5t-233 141.5t-233.5 -142t-84.5 -364zM354 1786h189l227 -295h-139z" />
<glyph unicode="&#xd3;" horiz-adv-x="1259" d="M80 682q0 151 37.5 280t106 224t173 149t232.5 54t232.5 -54t174 -149t107 -224.5t37.5 -279.5t-37.5 -279.5t-107 -224.5t-174 -149t-232.5 -54t-232.5 54t-173 149t-106 224t-37.5 280zM311 682q0 -221 84.5 -363.5t233.5 -142.5q100 0 172.5 67.5t108.5 181t36 257.5 q0 223 -84 364.5t-233 141.5t-233.5 -142t-84.5 -364zM496 1491l225 295h190l-276 -295h-139z" />
<glyph unicode="&#xd4;" horiz-adv-x="1259" d="M80 682q0 151 37.5 280t106 224t173 149t232.5 54t232.5 -54t174 -149t107 -224.5t37.5 -279.5t-37.5 -279.5t-107 -224.5t-174 -149t-232.5 -54t-232.5 54t-173 149t-106 224t-37.5 280zM311 682q0 -221 84.5 -363.5t233.5 -142.5q100 0 172.5 67.5t108.5 181t36 257.5 q0 223 -84 364.5t-233 141.5t-233.5 -142t-84.5 -364zM375 1491l160 295h188l166 -295h-123l-137 199l-131 -199h-123z" />
<glyph unicode="&#xd5;" horiz-adv-x="1259" d="M80 682q0 151 37.5 280t106 224t173 149t232.5 54t232.5 -54t174 -149t107 -224.5t37.5 -279.5t-37.5 -279.5t-107 -224.5t-174 -149t-232.5 -54t-232.5 54t-173 149t-106 224t-37.5 280zM311 682q0 -221 84.5 -363.5t233.5 -142.5q100 0 172.5 67.5t108.5 181t36 257.5 q0 223 -84 364.5t-233 141.5t-233.5 -142t-84.5 -364zM340 1499q0 125 49 200t139 75q42 0 74 -26t48 -57t38 -57t47 -26q34 0 54 38.5t20 114.5h111q0 -125 -48.5 -199.5t-138.5 -74.5q-35 0 -62.5 17t-44 41.5t-31 49t-31.5 41.5t-38 17q-34 0 -54.5 -39t-20.5 -115h-111z " />
<glyph unicode="&#xd6;" horiz-adv-x="1259" d="M80 682q0 151 37.5 280t106 224t173 149t232.5 54t232.5 -54t174 -149t107 -224.5t37.5 -279.5t-37.5 -279.5t-107 -224.5t-174 -149t-232.5 -54t-232.5 54t-173 149t-106 224t-37.5 280zM311 682q0 -221 84.5 -363.5t233.5 -142.5q100 0 172.5 67.5t108.5 181t36 257.5 q0 223 -84 364.5t-233 141.5t-233.5 -142t-84.5 -364zM330 1593q0 47 33.5 81t80.5 34t81 -34t34 -81t-34 -80.5t-81 -33.5t-80.5 33.5t-33.5 80.5zM702 1593q0 47 34 81t81 34t82 -34t35 -81t-34.5 -80.5t-82.5 -33.5q-47 0 -81 33.5t-34 80.5z" />
<glyph unicode="&#xd7;" horiz-adv-x="903" d="M104 430l254 254l-254 254l95 94l254 -256l254 256l92 -94l-252 -254l252 -254l-92 -94l-254 256l-254 -256z" />
<glyph unicode="&#xd8;" horiz-adv-x="1259" d="M80 682q0 151 37.5 280t106 224t173 149t232.5 54q158 0 282 -84l37 61h154l-90 -152q82 -97 125 -234t43 -298q0 -150 -37.5 -279.5t-107 -224.5t-174 -149t-232.5 -54q-162 0 -293 91l-37 -66h-154l93 160q-158 197 -158 522zM311 682q0 -178 56 -305l436 741 q-73 70 -174 70q-149 0 -233.5 -142t-84.5 -364zM446 252q73 -76 183 -76q100 0 172.5 67.5t108.5 181t36 257.5q0 187 -59 317z" />
<glyph unicode="&#xd9;" horiz-adv-x="1214" d="M131 461v905h227v-907q0 -137 65 -210t185 -73q119 0 183.5 73t64.5 210v907h227v-905q0 -231 -126.5 -358.5t-348.5 -127.5q-223 0 -350 127.5t-127 358.5zM332 1786h188l228 -295h-140z" />
<glyph unicode="&#xda;" horiz-adv-x="1214" d="M131 461v905h227v-907q0 -137 65 -210t185 -73q119 0 183.5 73t64.5 210v907h227v-905q0 -231 -126.5 -358.5t-348.5 -127.5q-223 0 -350 127.5t-127 358.5zM473 1491l225 295h191l-277 -295h-139z" />
<glyph unicode="&#xdb;" horiz-adv-x="1214" d="M131 461v905h227v-907q0 -137 65 -210t185 -73q119 0 183.5 73t64.5 210v907h227v-905q0 -231 -126.5 -358.5t-348.5 -127.5q-223 0 -350 127.5t-127 358.5zM356 1491l160 295h189l165 -295h-122l-138 199l-131 -199h-123z" />
<glyph unicode="&#xdc;" horiz-adv-x="1214" d="M131 461v905h227v-907q0 -137 65 -210t185 -73q119 0 183.5 73t64.5 210v907h227v-905q0 -231 -126.5 -358.5t-348.5 -127.5q-223 0 -350 127.5t-127 358.5zM307 1593q0 47 34 81t81 34t81 -34t34 -81t-34 -80.5t-81 -33.5t-81 33.5t-34 80.5zM680 1593q0 47 34 81t81 34 t81.5 -34t34.5 -81t-34.5 -80.5t-81.5 -33.5t-81 33.5t-34 80.5z" />
<glyph unicode="&#xdd;" horiz-adv-x="1073" d="M0 1366h250l287 -584l286 584h250l-424 -797v-569h-225v569zM408 1491l225 295h190l-276 -295h-139z" />
<glyph unicode="&#xde;" horiz-adv-x="1054" d="M131 0v1366h225v-233h240q98 0 176.5 -34.5t127.5 -93.5t75 -135.5t26 -162.5q0 -180 -106.5 -301t-298.5 -121h-240v-285h-225zM356 483h213q92 0 146.5 62t54.5 162q0 102 -54.5 164.5t-146.5 62.5h-213v-451z" />
<glyph unicode="&#xdf;" horiz-adv-x="1140" d="M129 0v1010q0 161 107 268.5t286 107.5q151 0 260 -79t109 -199q0 -61 -25 -110t-61 -80.5t-72 -58.5t-61 -58t-25 -66t25.5 -61t66.5 -44t90 -35t98.5 -42t90.5 -58.5t66.5 -90t25.5 -130.5q0 -126 -94.5 -212.5t-251.5 -86.5q-115 0 -193 37t-147 107l84 143 q41 -51 102.5 -87t134.5 -36q72 0 116 36.5t44 92.5q0 38 -25 67t-65 48.5t-88.5 38.5t-97 43.5t-88.5 56t-65 83.5t-25 120q0 56 24 102t58.5 76.5t69.5 57t59 57.5t24 65q0 54 -48.5 88.5t-115.5 34.5q-83 0 -136.5 -51t-53.5 -145v-1010h-203z" />
<glyph unicode="&#xe0;" horiz-adv-x="960" d="M70 303q0 153 88 238.5t215 85.5q80 0 150.5 -31t111.5 -92v147q0 90 -50.5 139.5t-142.5 49.5q-135 0 -247 -115l-80 143q72 74 167 110t197 36q165 0 263 -82t98 -254v-678h-205v104q-43 -63 -113 -96t-149 -33q-125 0 -214 89t-89 239zM203 1434h188l227 -295h-139z M274 301q0 -80 47.5 -132t124.5 -52q61 0 111 25t78 77v162q-55 104 -189 104q-77 0 -124.5 -52t-47.5 -132z" />
<glyph unicode="&#xe1;" horiz-adv-x="960" d="M70 303q0 153 88 238.5t215 85.5q80 0 150.5 -31t111.5 -92v147q0 90 -50.5 139.5t-142.5 49.5q-135 0 -247 -115l-80 143q72 74 167 110t197 36q165 0 263 -82t98 -254v-678h-205v104q-43 -63 -113 -96t-149 -33q-125 0 -214 89t-89 239zM274 301q0 -80 47.5 -132 t124.5 -52q61 0 111 25t78 77v162q-55 104 -189 104q-77 0 -124.5 -52t-47.5 -132zM348 1139l225 295h191l-277 -295h-139z" />
<glyph unicode="&#xe2;" horiz-adv-x="960" d="M70 303q0 153 88 238.5t215 85.5q80 0 150.5 -31t111.5 -92v147q0 90 -50.5 139.5t-142.5 49.5q-135 0 -247 -115l-80 143q72 74 167 110t197 36q165 0 263 -82t98 -254v-678h-205v104q-43 -63 -113 -96t-149 -33q-125 0 -214 89t-89 239zM229 1139l160 295h189l165 -295 h-122l-138 198l-131 -198h-123zM274 301q0 -80 47.5 -132t124.5 -52q61 0 111 25t78 77v162q-55 104 -189 104q-77 0 -124.5 -52t-47.5 -132z" />
<glyph unicode="&#xe3;" horiz-adv-x="960" d="M70 303q0 153 88 238.5t215 85.5q80 0 150.5 -31t111.5 -92v147q0 90 -50.5 139.5t-142.5 49.5q-135 0 -247 -115l-80 143q72 74 167 110t197 36q165 0 263 -82t98 -254v-678h-205v104q-43 -63 -113 -96t-149 -33q-125 0 -214 89t-89 239zM193 1147q0 125 49 199.5 t139 74.5q42 0 74 -26t48 -57t38 -57t47 -26q34 0 54 38.5t20 115.5h110q0 -125 -48 -199.5t-138 -74.5q-43 0 -75 26t-47.5 56.5t-37.5 56.5t-47 26q-34 0 -55 -38.5t-21 -114.5h-110zM274 301q0 -80 47.5 -132t124.5 -52q61 0 111 25t78 77v162q-55 104 -189 104 q-77 0 -124.5 -52t-47.5 -132z" />
<glyph unicode="&#xe4;" horiz-adv-x="960" d="M70 303q0 153 88 238.5t215 85.5q80 0 150.5 -31t111.5 -92v147q0 90 -50.5 139.5t-142.5 49.5q-135 0 -247 -115l-80 143q72 74 167 110t197 36q165 0 263 -82t98 -254v-678h-205v104q-43 -63 -113 -96t-149 -33q-125 0 -214 89t-89 239zM178 1243q0 47 34 81t81 34 t81 -34t34 -81t-34 -81t-81 -34t-81 34t-34 81zM274 301q0 -80 47.5 -132t124.5 -52q61 0 111 25t78 77v162q-55 104 -189 104q-77 0 -124.5 -52t-47.5 -132zM551 1243q0 47 34 81t81 34t81.5 -34t34.5 -81t-34.5 -81t-81.5 -34t-81 34t-34 81z" />
<glyph unicode="&#xe5;" horiz-adv-x="960" d="M70 303q0 153 88 238.5t215 85.5q80 0 150.5 -31t111.5 -92v147q0 90 -50.5 139.5t-142.5 49.5q-135 0 -247 -115l-80 143q72 74 167 110t197 36q165 0 263 -82t98 -254v-678h-205v104q-43 -63 -113 -96t-149 -33q-125 0 -214 89t-89 239zM274 301q0 -80 47.5 -132 t124.5 -52q61 0 111 25t78 77v162q-55 104 -189 104q-77 0 -124.5 -52t-47.5 -132zM287 1309q0 79 57 135.5t137 56.5q78 0 134.5 -56.5t56.5 -135.5q0 -80 -56.5 -137.5t-134.5 -57.5q-79 0 -136.5 57.5t-57.5 137.5zM383 1309q0 -40 28.5 -69.5t69.5 -29.5q39 0 66.5 29.5 t27.5 69.5t-27 68t-67 28q-41 0 -69.5 -28t-28.5 -68z" />
<glyph unicode="&#xe6;" horiz-adv-x="1533" d="M70 301q0 150 87 238t216 88q79 0 149 -31t113 -92v147q0 90 -50.5 139.5t-142.5 49.5q-135 0 -247 -115l-80 143q72 74 167 110t197 36q221 0 287 -162q99 162 299 162q126 0 219 -70.5t138.5 -188.5t45.5 -268v-59h-632q8 -127 75.5 -206t184.5 -79q61 0 122 29t103 80 l98 -125q-63 -72 -152.5 -112t-189.5 -40q-116 0 -206 50t-148 133q-127 -183 -342 -183q-131 0 -221 87.5t-90 238.5zM274 301q0 -86 47.5 -135t124.5 -49q67 0 122.5 34t88.5 101q-22 64 -22 127q-54 106 -189 106q-76 0 -124 -49.5t-48 -134.5zM836 573h436q-1 49 -13 95 t-36.5 87t-68.5 66t-101 25q-55 0 -98 -25.5t-67.5 -67t-37 -87t-14.5 -93.5z" />
<glyph unicode="&#xe7;" horiz-adv-x="854" d="M72 496q0 226 119.5 372t314.5 146q197 0 303 -133l-102 -140q-72 93 -179 93q-114 0 -179.5 -96t-65.5 -242t66 -243t179 -97q105 0 179 92l102 -139q-92 -119 -258 -132l-31 -81q26 20 66 20q54 0 90.5 -38.5t36.5 -100.5q0 -75 -59 -121.5t-148 -46.5 q-58 0 -109.5 17.5t-83.5 45.5l43 88q72 -57 146 -57q42 0 72 21t30 55q0 29 -16 46t-45 17q-39 0 -62 -30l-80 45l43 123q-170 23 -271 165t-101 351z" />
<glyph unicode="&#xe8;" horiz-adv-x="974" d="M72 496q0 144 50.5 261t148.5 187t227 70q131 0 225.5 -70t140 -187t45.5 -268v-61h-630q6 -127 73.5 -206t186.5 -79q62 0 122 28t103 79l98 -123q-65 -73 -154 -112.5t-190 -39.5q-202 0 -324 144.5t-122 376.5zM221 1434h189l227 -295h-139zM276 573h437q-1 49 -13 95 t-36 87t-67.5 66t-100.5 25q-45 0 -82 -17t-61.5 -44t-42 -63.5t-25.5 -73.5t-9 -75z" />
<glyph unicode="&#xe9;" horiz-adv-x="974" d="M72 496q0 144 50.5 261t148.5 187t227 70q131 0 225.5 -70t140 -187t45.5 -268v-61h-630q6 -127 73.5 -206t186.5 -79q62 0 122 28t103 79l98 -123q-65 -73 -154 -112.5t-190 -39.5q-202 0 -324 144.5t-122 376.5zM276 573h437q-1 49 -13 95t-36 87t-67.5 66t-100.5 25 q-45 0 -82 -17t-61.5 -44t-42 -63.5t-25.5 -73.5t-9 -75zM367 1139l225 295h190l-276 -295h-139z" />
<glyph unicode="&#xea;" horiz-adv-x="974" d="M72 496q0 144 50.5 261t148.5 187t227 70q131 0 225.5 -70t140 -187t45.5 -268v-61h-630q6 -127 73.5 -206t186.5 -79q62 0 122 28t103 79l98 -123q-65 -73 -154 -112.5t-190 -39.5q-202 0 -324 144.5t-122 376.5zM242 1139l159 295h189l166 -295h-123l-137 198 l-131 -198h-123zM276 573h437q-1 49 -13 95t-36 87t-67.5 66t-100.5 25q-45 0 -82 -17t-61.5 -44t-42 -63.5t-25.5 -73.5t-9 -75z" />
<glyph unicode="&#xeb;" horiz-adv-x="974" d="M72 496q0 144 50.5 261t148.5 187t227 70q131 0 225.5 -70t140 -187t45.5 -268v-61h-630q6 -127 73.5 -206t186.5 -79q62 0 122 28t103 79l98 -123q-65 -73 -154 -112.5t-190 -39.5q-202 0 -324 144.5t-122 376.5zM195 1243q0 47 33.5 81t80.5 34t81 -34t34 -81t-34 -81 t-81 -34t-80.5 34t-33.5 81zM276 573h437q-1 49 -13 95t-36 87t-67.5 66t-100.5 25q-45 0 -82 -17t-61.5 -44t-42 -63.5t-25.5 -73.5t-9 -75zM567 1243q0 47 34 81t81 34t82 -34t35 -81t-35 -81t-82 -34t-81 34t-34 81z" />
<glyph unicode="&#xec;" horiz-adv-x="444" d="M-57 1434h188l227 -295h-139zM121 0v989h203v-989h-203z" />
<glyph unicode="&#xed;" horiz-adv-x="444" d="M88 1139l225 295h191l-277 -295h-139zM121 0v989h203v-989h-203z" />
<glyph unicode="&#xee;" horiz-adv-x="444" d="M-33 1139l160 295h188l166 -295h-123l-137 198l-131 -198h-123zM121 0v989h203v-989h-203z" />
<glyph unicode="&#xef;" horiz-adv-x="444" d="M-78 1243q0 47 34 81t81 34t81 -34t34 -81t-34 -81t-81 -34t-81 34t-34 81zM121 0v989h203v-989h-203zM295 1243q0 47 34 81t81 34t81.5 -34t34.5 -81t-34.5 -81t-81.5 -34t-81 34t-34 81z" />
<glyph unicode="&#xf0;" horiz-adv-x="1003" d="M72 471q0 137 44 248t130 177.5t198 66.5q163 0 254 -160q-55 153 -194 319l-254 -112l-45 102l221 96q-57 58 -113 107l146 125q60 -56 149 -152l183 80l40 -98l-149 -68q250 -324 250 -676q0 -163 -48 -286t-146.5 -194t-235.5 -71q-134 0 -233 68t-148 179t-49 249z M283 471q0 -86 22.5 -155.5t73.5 -114.5t123 -45q106 0 161.5 90.5t55.5 224.5q0 132 -55.5 222.5t-161.5 90.5t-162.5 -91t-56.5 -222z" />
<glyph unicode="&#xf1;" horiz-adv-x="995" d="M125 0v989h203v-133q45 65 124 111.5t166 46.5q131 0 196 -70t65 -201v-743h-205v674q0 160 -142 160q-62 0 -117 -40.5t-87 -97.5v-696h-203zM211 1147q0 125 49 199.5t139 74.5q42 0 74 -26t48 -57t38 -57t47 -26q34 0 54 38.5t20 115.5h111q0 -125 -48.5 -199.5 t-138.5 -74.5q-43 0 -75 26t-47.5 56.5t-37.5 56.5t-47 26q-34 0 -54.5 -38.5t-20.5 -114.5h-111z" />
<glyph unicode="&#xf2;" horiz-adv-x="1003" d="M72 496q0 142 48 258t147 188t235 72t235 -72t147 -188t48 -258q0 -106 -28 -199.5t-81 -165.5t-136 -114t-185 -42t-185 42t-136 114t-81 165.5t-28 199.5zM223 1434h189l227 -295h-139zM283 496q0 -94 22.5 -168.5t73 -123t123.5 -48.5t123 48.5t72 123t22 168.5 q0 93 -22 167t-72 122.5t-123 48.5t-123.5 -48.5t-73 -122.5t-22.5 -167z" />
<glyph unicode="&#xf3;" horiz-adv-x="1003" d="M72 496q0 142 48 258t147 188t235 72t235 -72t147 -188t48 -258q0 -106 -28 -199.5t-81 -165.5t-136 -114t-185 -42t-185 42t-136 114t-81 165.5t-28 199.5zM283 496q0 -94 22.5 -168.5t73 -123t123.5 -48.5t123 48.5t72 123t22 168.5q0 93 -22 167t-72 122.5t-123 48.5 t-123.5 -48.5t-73 -122.5t-22.5 -167zM367 1139l225 295h190l-276 -295h-139z" />
<glyph unicode="&#xf4;" horiz-adv-x="1003" d="M72 496q0 142 48 258t147 188t235 72t235 -72t147 -188t48 -258q0 -106 -28 -199.5t-81 -165.5t-136 -114t-185 -42t-185 42t-136 114t-81 165.5t-28 199.5zM246 1139l160 295h188l166 -295h-123l-137 198l-131 -198h-123zM283 496q0 -94 22.5 -168.5t73 -123 t123.5 -48.5t123 48.5t72 123t22 168.5q0 93 -22 167t-72 122.5t-123 48.5t-123.5 -48.5t-73 -122.5t-22.5 -167z" />
<glyph unicode="&#xf5;" horiz-adv-x="1003" d="M72 496q0 142 48 258t147 188t235 72t235 -72t147 -188t48 -258q0 -106 -28 -199.5t-81 -165.5t-136 -114t-185 -42t-185 42t-136 114t-81 165.5t-28 199.5zM211 1147q0 125 49 199.5t139 74.5q42 0 74 -26t48 -57t38 -57t47 -26q34 0 54 38.5t20 115.5h111 q0 -125 -48.5 -199.5t-138.5 -74.5q-43 0 -75 26t-47.5 56.5t-37.5 56.5t-47 26q-34 0 -54.5 -38.5t-20.5 -114.5h-111zM283 496q0 -94 22.5 -168.5t73 -123t123.5 -48.5t123 48.5t72 123t22 168.5q0 93 -22 167t-72 122.5t-123 48.5t-123.5 -48.5t-73 -122.5t-22.5 -167z " />
<glyph unicode="&#xf6;" horiz-adv-x="1003" d="M72 496q0 142 48 258t147 188t235 72t235 -72t147 -188t48 -258q0 -106 -28 -199.5t-81 -165.5t-136 -114t-185 -42t-185 42t-136 114t-81 165.5t-28 199.5zM201 1243q0 47 33.5 81t80.5 34t81 -34t34 -81t-34 -81t-81 -34t-80.5 34t-33.5 81zM283 496q0 -94 22.5 -168.5 t73 -123t123.5 -48.5t123 48.5t72 123t22 168.5q0 93 -22 167t-72 122.5t-123 48.5t-123.5 -48.5t-73 -122.5t-22.5 -167zM573 1243q0 47 34 81t81 34t82 -34t35 -81t-35 -81t-82 -34t-81 34t-34 81z" />
<glyph unicode="&#xf7;" horiz-adv-x="907" d="M59 625v133h789v-133h-789zM346 350q0 44 32.5 75.5t76.5 31.5t76 -31.5t32 -75.5t-32 -76t-76 -32t-76.5 32t-32.5 76zM346 1026q0 44 32.5 75.5t76.5 31.5t76 -31.5t32 -75.5t-32 -76t-76 -32t-76.5 32t-32.5 76z" />
<glyph unicode="&#xf8;" horiz-adv-x="1003" d="M72 496q0 142 48 258t147 188t235 72q137 0 239 -76l37 51h125l-86 -125q115 -142 115 -368q0 -106 -28 -199.5t-81 -165.5t-136 -114t-185 -42q-141 0 -246 78l-37 -53h-127l90 129q-110 143 -110 367zM283 496q0 -106 26 -183l322 465q-53 56 -129 56 q-73 0 -123.5 -48.5t-73 -122.5t-22.5 -167zM367 213q54 -57 135 -57q73 0 123 48.5t72 123t22 168.5q0 99 -29 184z" />
<glyph unicode="&#xf9;" horiz-adv-x="995" d="M121 242v747h203v-676q0 -84 36.5 -120.5t106.5 -36.5q62 0 116.5 38.5t86.5 94.5v700h202v-989h-202v129q-45 -65 -122.5 -109.5t-166.5 -44.5q-260 0 -260 267zM221 1434h189l227 -295h-139z" />
<glyph unicode="&#xfa;" horiz-adv-x="995" d="M121 242v747h203v-676q0 -84 36.5 -120.5t106.5 -36.5q62 0 116.5 38.5t86.5 94.5v700h202v-989h-202v129q-45 -65 -122.5 -109.5t-166.5 -44.5q-260 0 -260 267zM365 1139l225 295h190l-276 -295h-139z" />
<glyph unicode="&#xfb;" horiz-adv-x="995" d="M121 242v747h203v-676q0 -84 36.5 -120.5t106.5 -36.5q62 0 116.5 38.5t86.5 94.5v700h202v-989h-202v129q-45 -65 -122.5 -109.5t-166.5 -44.5q-260 0 -260 267zM242 1139l159 295h189l166 -295h-123l-137 198l-131 -198h-123z" />
<glyph unicode="&#xfc;" horiz-adv-x="995" d="M121 242v747h203v-676q0 -84 36.5 -120.5t106.5 -36.5q62 0 116.5 38.5t86.5 94.5v700h202v-989h-202v129q-45 -65 -122.5 -109.5t-166.5 -44.5q-260 0 -260 267zM201 1243q0 47 33.5 81t80.5 34t81 -34t34 -81t-34 -81t-81 -34t-80.5 34t-33.5 81zM573 1243q0 47 34 81 t81 34t82 -34t35 -81t-35 -81t-82 -34t-81 34t-34 81z" />
<glyph unicode="&#xfd;" horiz-adv-x="884" d="M2 989h219l221 -743l224 743h217l-394 -1173q-41 -119 -110.5 -167t-179.5 -50q-67 0 -111 14l31 180q22 -14 63 -14q43 0 69.5 19t43.5 65l43 119zM307 1139l225 295h191l-277 -295h-139z" />
<glyph unicode="&#xfe;" horiz-adv-x="1011" d="M121 -377v1743h203v-506q44 73 111.5 113.5t144.5 40.5q168 0 265 -139t97 -379q0 -238 -97 -379.5t-265 -141.5q-76 0 -144 39.5t-112 116.5v-508h-203zM324 291q27 -56 82.5 -95.5t113.5 -39.5q102 0 156.5 94.5t54.5 245.5q0 149 -54.5 243.5t-156.5 94.5 q-58 0 -112.5 -38.5t-83.5 -95.5v-409z" />
<glyph unicode="&#xff;" horiz-adv-x="884" d="M2 989h219l221 -743l224 743h217l-394 -1173q-41 -119 -110.5 -167t-179.5 -50q-67 0 -111 14l31 180q22 -14 63 -14q43 0 69.5 19t43.5 65l43 119zM141 1243q0 47 34 81t81 34t81 -34t34 -81t-34 -81t-81 -34t-81 34t-34 81zM514 1243q0 47 34 81t81 34t81.5 -34 t34.5 -81t-34.5 -81t-81.5 -34t-81 34t-34 81z" />
<glyph unicode="&#x152;" horiz-adv-x="1757" d="M80 682q0 203 59.5 361t178 250.5t278.5 92.5q97 0 186.5 -45t141.5 -135v160h749v-199h-524v-370h510v-199h-510v-399h524v-199h-749v160q-53 -92 -142.5 -138.5t-185.5 -46.5q-120 0 -218.5 54t-163 148.5t-99.5 224t-35 280.5zM311 682q0 -222 84.5 -364t237.5 -142 q99 0 176 64.5t115 183.5v518q-38 118 -114.5 181t-176.5 63q-153 0 -237.5 -140.5t-84.5 -363.5z" />
<glyph unicode="&#x153;" horiz-adv-x="1624" d="M72 496q0 142 48 258t147 188t235 72q217 0 323 -221q45 96 125 158.5t197 62.5q130 0 225 -70.5t141 -188t46 -268.5v-59h-633q6 -126 74 -205.5t186 -79.5q61 0 122 28.5t103 78.5l98 -123q-63 -72 -152.5 -112t-189.5 -40q-231 0 -342 224q-105 -224 -323 -224 q-102 0 -185 42t-136 114t-81 165.5t-28 199.5zM283 496q0 -147 57 -244.5t162 -97.5t161 97.5t56 244.5q0 145 -56 241.5t-161 96.5t-162 -96.5t-57 -241.5zM926 573h436q-2 50 -14 95.5t-36.5 86.5t-68 66t-100.5 25q-55 0 -98 -25.5t-67.5 -67t-37 -87t-14.5 -93.5z" />
<glyph unicode="&#x178;" horiz-adv-x="1073" d="M0 1366h250l287 -584l286 584h250l-424 -797v-569h-225v569zM240 1593q0 47 33.5 81t80.5 34t81 -34t34 -81t-34 -80.5t-81 -33.5t-80.5 33.5t-33.5 80.5zM612 1593q0 47 34 81t81 34t82 -34t35 -81t-34.5 -80.5t-82.5 -33.5q-47 0 -81 33.5t-34 80.5z" />
<glyph unicode="&#x2c6;" horiz-adv-x="514" d="M0 1139l160 295h188l166 -295h-123l-137 198l-131 -198h-123z" />
<glyph unicode="&#x2dc;" horiz-adv-x="579" d="M0 1147q0 125 49 199.5t139 74.5q42 0 74 -26t48 -57t38 -57t47 -26q34 0 54 38.5t20 115.5h111q0 -125 -48.5 -199.5t-138.5 -74.5q-43 0 -75 26t-47.5 56.5t-37.5 56.5t-47 26q-34 0 -54.5 -38.5t-20.5 -114.5h-111z" />
<glyph unicode="&#x2000;" horiz-adv-x="902" />
<glyph unicode="&#x2001;" horiz-adv-x="1804" />
<glyph unicode="&#x2002;" horiz-adv-x="902" />
<glyph unicode="&#x2003;" horiz-adv-x="1804" />
<glyph unicode="&#x2004;" horiz-adv-x="601" />
<glyph unicode="&#x2005;" horiz-adv-x="451" />
<glyph unicode="&#x2006;" horiz-adv-x="300" />
<glyph unicode="&#x2007;" horiz-adv-x="300" />
<glyph unicode="&#x2008;" horiz-adv-x="225" />
<glyph unicode="&#x2009;" horiz-adv-x="360" />
<glyph unicode="&#x200a;" horiz-adv-x="100" />
<glyph unicode="&#x2010;" horiz-adv-x="552" d="M61 408v176h431v-176h-431z" />
<glyph unicode="&#x2011;" horiz-adv-x="552" d="M61 408v176h431v-176h-431z" />
<glyph unicode="&#x2012;" horiz-adv-x="552" d="M61 408v176h431v-176h-431z" />
<glyph unicode="&#x2013;" horiz-adv-x="1079" d="M61 408v176h957v-176h-957z" />
<glyph unicode="&#x2014;" horiz-adv-x="1509" d="M61 408v176h1387v-176h-1387z" />
<glyph unicode="&#x2018;" horiz-adv-x="497" d="M96 1047q0 102 50.5 191t136.5 148l92 -73q-51 -31 -93 -87t-51 -106q8 4 33 4q50 0 83.5 -35t33.5 -90t-38.5 -94t-94.5 -39q-64 0 -108 49t-44 132z" />
<glyph unicode="&#x2019;" horiz-adv-x="497" d="M111 1251q0 56 39 95.5t94 39.5q64 0 107.5 -48.5t43.5 -131.5q0 -102 -50.5 -192t-135.5 -150l-92 76q50 30 92 85.5t51 107.5q-10 -5 -33 -5q-50 0 -83 34.5t-33 88.5z" />
<glyph unicode="&#x201a;" horiz-adv-x="497" d="M111 119q0 55 38.5 94t94.5 39q64 0 107.5 -48.5t43.5 -131.5q0 -101 -50.5 -191.5t-135.5 -148.5l-92 75q50 30 92 85.5t51 105.5q-8 -4 -33 -4q-50 0 -83 35t-33 90z" />
<glyph unicode="&#x201c;" horiz-adv-x="866" d="M100 1047q0 101 51 190.5t136 148.5l94 -73q-51 -32 -93.5 -87.5t-51.5 -105.5q8 4 32 4q51 0 85 -35t34 -90t-39.5 -94t-95.5 -39q-63 0 -107.5 49t-44.5 132zM469 1047q0 101 51 190.5t135 148.5l95 -73q-51 -32 -94 -87.5t-52 -105.5q12 4 33 4q51 0 85 -35t34 -90 t-39 -94t-94 -39q-64 0 -109 49t-45 132z" />
<glyph unicode="&#x201d;" horiz-adv-x="866" d="M111 1251q0 56 39 95.5t94 39.5q64 0 107.5 -48.5t43.5 -131.5q0 -102 -50.5 -192t-135.5 -150l-92 76q50 30 92 85.5t51 107.5q-10 -5 -33 -5q-50 0 -83 34.5t-33 88.5zM479 1251q0 56 39 95.5t94 39.5q65 0 109.5 -48.5t44.5 -131.5q0 -101 -50.5 -191.5t-135.5 -150.5 l-95 76q51 30 94 86t52 107q-15 -5 -33 -5q-51 0 -85 34.5t-34 88.5z" />
<glyph unicode="&#x201e;" horiz-adv-x="866" d="M111 119q0 55 38.5 94t94.5 39q64 0 107.5 -48.5t43.5 -131.5q0 -101 -50.5 -191.5t-135.5 -148.5l-92 75q50 30 92 85.5t51 105.5q-8 -4 -33 -4q-50 0 -83 35t-33 90zM479 119q0 55 38.5 94t94.5 39q65 0 109.5 -48.5t44.5 -131.5q0 -100 -51 -190.5t-135 -149.5l-95 75 q51 30 94 85.5t52 105.5q-12 -4 -33 -4q-51 0 -85 35t-34 90z" />
<glyph unicode="&#x2022;" horiz-adv-x="733" d="M137 496q0 95 68.5 163t163.5 68t163 -68t68 -163q0 -94 -68 -162t-163 -68t-163.5 68t-68.5 162z" />
<glyph unicode="&#x2026;" horiz-adv-x="1486" d="M111 117q0 56 40 95.5t97 39.5t97 -39.5t40 -95.5q0 -57 -40 -97t-97 -40t-97 40t-40 97zM606 117q0 56 40 95.5t97 39.5t97.5 -39.5t40.5 -95.5q0 -57 -40.5 -97t-97.5 -40t-97 40t-40 97zM1102 117q0 56 40 95.5t97 39.5q56 0 96.5 -40t40.5 -95q0 -57 -40.5 -97 t-96.5 -40q-57 0 -97 40t-40 97z" />
<glyph unicode="&#x202f;" horiz-adv-x="360" />
<glyph unicode="&#x2039;" horiz-adv-x="557" d="M61 498l256 362h179l-256 -362l256 -369h-179z" />
<glyph unicode="&#x203a;" horiz-adv-x="557" d="M61 129l256 369l-256 362h179l256 -362l-256 -369h-179z" />
<glyph unicode="&#x205f;" horiz-adv-x="451" />
<glyph unicode="&#x20ac;" horiz-adv-x="1161" d="M43 473v133h78q-2 25 -2 76q0 55 2 82h-78v131h96q47 227 188.5 360.5t350.5 133.5q291 0 434 -302l-186 -83q-38 85 -101.5 134.5t-146.5 49.5q-108 0 -187.5 -78.5t-115.5 -214.5h391v-131h-412q-4 -54 -4 -82q0 -51 2 -76h414v-133h-391q34 -138 113.5 -217.5 t189.5 -79.5q86 0 150 55t98 146l188 -82q-144 -320 -436 -320q-209 0 -351.5 135t-187.5 363h-96z" />
<glyph unicode="&#x2122;" horiz-adv-x="847" d="M35 1313v53h270v-53h-106v-398h-58v398h-106zM379 915v451h88l111 -324l110 324h88v-451h-57v373l-133 -373h-17l-133 373v-373h-57z" />
<glyph unicode="&#xe000;" horiz-adv-x="993" d="M0 0v993h993v-993h-993z" />
</font>
</defs>
</svg>
