<?xml version="1.0" standalone="no"?>
<!DOCTYPE svg PUBLIC "-//W3C//DTD SVG 1.1//EN" "http://www.w3.org/Graphics/SVG/1.1/DTD/svg11.dtd" >
<svg xmlns="http://www.w3.org/2000/svg">
<metadata></metadata>
<defs>
<font id="proxima_nova_cn_ltregular" horiz-adv-x="962" >
<font-face units-per-em="2048" ascent="1618" descent="-430" />
<missing-glyph horiz-adv-x="444" />
<glyph unicode="&#xfb01;" horiz-adv-x="882" d="M45 897v92h131v139q0 120 60 189t161 69q68 0 111 -28l-33 -84q-27 20 -65 20q-62 0 -95.5 -43.5t-33.5 -122.5v-139h170v-92h-170v-897h-105v897h-131zM606 1225q0 33 23.5 56.5t56.5 23.5q34 0 57 -23t23 -57q0 -33 -23.5 -56.5t-56.5 -23.5q-32 0 -56 24t-24 56z M635 0v989h102v-989h-102z" />
<glyph unicode="&#xfb02;" horiz-adv-x="882" d="M45 897v92h131v139q0 120 60 189t161 69q68 0 111 -28l-33 -84q-27 20 -65 20q-62 0 -95.5 -43.5t-33.5 -122.5v-139h170v-92h-170v-897h-105v897h-131zM635 0v1366h102v-1366h-102z" />
<glyph unicode="&#xfb03;" horiz-adv-x="1370" d="M45 897v92h131v139q0 120 60.5 189t166.5 69q97 0 158 -61l-47 -80q-43 49 -100 49q-66 0 -99.5 -43t-33.5 -123v-139h170v-92h-170v-897h-105v897h-131zM535 897v92h131v139q0 120 60 189t161 69q67 0 110 -28l-32 -84q-27 20 -66 20q-62 0 -95.5 -43.5t-33.5 -122.5 v-139h170v-92h-170v-897h-104v897h-131zM1094 1225q0 33 23.5 56.5t56.5 23.5q34 0 56.5 -23t22.5 -57q0 -33 -23 -56.5t-56 -23.5q-32 0 -56 24t-24 56zM1122 0v989h103v-989h-103z" />
<glyph unicode="&#xfb04;" horiz-adv-x="1370" d="M45 897v92h131v139q0 120 60.5 189t166.5 69q97 0 158 -61l-47 -80q-43 49 -100 49q-66 0 -99.5 -43t-33.5 -123v-139h170v-92h-170v-897h-105v897h-131zM535 897v92h131v139q0 120 60 189t161 69q67 0 110 -28l-32 -84q-27 20 -66 20q-62 0 -95.5 -43.5t-33.5 -122.5 v-139h170v-92h-170v-897h-104v897h-131zM1122 0v1366h103v-1366h-103z" />
<glyph horiz-adv-x="2048" />
<glyph horiz-adv-x="2048" />
<glyph unicode="&#xd;" horiz-adv-x="2048" />
<glyph unicode=" "  horiz-adv-x="444" />
<glyph unicode="&#x09;" horiz-adv-x="444" />
<glyph unicode="&#xa0;" horiz-adv-x="444" />
<glyph unicode="!" horiz-adv-x="446" d="M135 70q0 35 26.5 60.5t61.5 25.5q37 0 62.5 -25.5t25.5 -60.5q0 -37 -25.5 -62.5t-62.5 -25.5q-36 0 -62 26t-26 62zM156 1366h135l-27 -1012h-82z" />
<glyph unicode="&#x22;" horiz-adv-x="645" d="M119 1315q0 29 21 50t50 21q30 0 51 -21t21 -50l-41 -436h-59q-43 409 -43 436zM383 1315q0 29 20.5 50t51.5 21q30 0 50.5 -20.5t20.5 -50.5l-43 -436h-59q-41 409 -41 436z" />
<glyph unicode="#" horiz-adv-x="1011" d="M43 381l20 84h191l123 436h-189l19 82h194l107 383h94l-106 -383h194l107 383h94l-109 -383h187l-19 -82h-190l-125 -436h194l-22 -84h-195l-108 -381h-94l110 381h-196l-109 -381h-94l108 381h-186zM346 465h195l125 436h-195z" />
<glyph unicode="$" horiz-adv-x="929" d="M74 145l69 88q49 -64 125.5 -106.5t167.5 -46.5v582q-44 22 -69 35t-64 37t-62 43.5t-50.5 50t-42 61t-25 71.5t-10.5 87q0 140 91 232.5t232 106.5v187h92v-187q180 -15 295 -139l-65 -86q-89 105 -230 121v-530q58 -30 95.5 -52.5t85 -60.5t75 -77.5t47 -97 t19.5 -124.5q0 -136 -81.5 -237.5t-240.5 -122.5v-185h-92v180q-227 9 -362 170zM231 1051q0 -85 53 -141.5t152 -108.5v479q-90 -12 -147.5 -74.5t-57.5 -154.5zM528 86q102 19 153.5 87.5t51.5 160.5q0 98 -53 161.5t-152 118.5v-528z" />
<glyph unicode="%" horiz-adv-x="1312" d="M68 1049q0 146 77.5 241.5t202.5 95.5t203 -95.5t78 -241.5q0 -144 -78 -238t-203 -94t-202.5 94t-77.5 238zM158 1049q0 -107 53 -180.5t137 -73.5q85 0 137 73t52 181q0 111 -51.5 185.5t-137.5 74.5q-84 0 -137 -75t-53 -185zM262 0l713 1366h86l-717 -1366h-82z M686 309q0 146 78 241t201 95q125 0 202.5 -95t77.5 -241q0 -144 -78 -239t-202 -95q-123 0 -201 95t-78 239zM776 309q0 -108 52 -182t137 -74t137.5 74t52.5 182q0 110 -52 184t-138 74t-137.5 -74t-51.5 -184z" />
<glyph unicode="&#x26;" horiz-adv-x="1044" d="M86 336q0 76 19 140t56.5 115t76 88t92.5 77q-92 186 -92 309q0 142 73 231.5t187 89.5q102 0 167.5 -70t65.5 -186q0 -69 -19.5 -125t-65 -106.5t-77 -77t-99.5 -76.5l-3 -3t-3 -2t-3.5 -2.5t-3.5 -2.5q58 -109 131 -211q72 -112 137 -194q75 154 113 323l94 -39 q-67 -235 -141 -368q61 -79 204 -246h-139q-94 114 -125 154q-135 -179 -317 -179q-143 0 -235.5 96.5t-92.5 264.5zM199 340q0 -129 64 -200.5t159 -71.5q132 0 248 165q-105 134 -160 220q-105 163 -135 219q-84 -68 -130 -146t-46 -186zM346 1065q0 -103 70 -250 q52 38 83.5 65t65.5 66.5t50 84t16 97.5q0 83 -37 126.5t-94 43.5q-69 0 -111.5 -61t-42.5 -172z" />
<glyph unicode="'" horiz-adv-x="382" d="M119 1315q0 29 21 50t50 21q30 0 51 -21t21 -50l-41 -436h-59q-43 409 -43 436z" />
<glyph unicode="(" horiz-adv-x="425" d="M94 498q0 488 230 905l65 -37q-89 -221 -133.5 -420t-44.5 -448q0 -248 45 -448.5t133 -418.5l-65 -39q-230 417 -230 906z" />
<glyph unicode=")" horiz-adv-x="425" d="M35 -369l65 -39q230 417 230 906q0 488 -230 905l-65 -37q89 -216 133.5 -416.5t44.5 -451.5q0 -250 -44.5 -451.5t-133.5 -415.5z" />
<glyph unicode="*" horiz-adv-x="645" d="M57 993l213 109l-213 110l39 66l201 -131l-12 239h75l-12 -239l203 131l37 -66l-213 -110l213 -109l-37 -65l-203 131l12 -240h-75l12 240l-201 -131z" />
<glyph unicode="+" horiz-adv-x="892" d="M59 649v82h342v373h91v-373h342v-82h-342v-385h-91v385h-342z" />
<glyph unicode="," horiz-adv-x="446" d="M117 -201q49 34 83.5 87.5t37.5 101.5l-9 -1q-9 -1 -12 -1q-36 0 -59 24t-23 60t25 61t61 25q42 0 71.5 -35t29.5 -94q0 -83 -41.5 -158.5t-104.5 -118.5z" />
<glyph unicode="-" horiz-adv-x="544" d="M61 449v94h422v-94h-422z" />
<glyph unicode="." horiz-adv-x="446" d="M135 70q0 35 26.5 60.5t61.5 25.5q37 0 62.5 -25.5t25.5 -60.5q0 -37 -25.5 -62.5t-62.5 -25.5q-36 0 -62 26t-26 62z" />
<glyph unicode="/" horiz-adv-x="481" d="M0 -41l393 1448h88l-393 -1448h-88z" />
<glyph unicode="0" horiz-adv-x="1028" d="M109 682q0 101 12 196t42 189t75 163.5t116.5 112.5t161.5 43q89 0 160 -43t116 -112.5t74.5 -163.5t41.5 -189t12 -196t-12 -196t-41.5 -189.5t-74.5 -164.5t-116 -113.5t-160 -43.5q-90 0 -161.5 43.5t-116.5 113.5t-75 164.5t-42 189.5t-12 196zM227 682q0 -88 7 -167 t27 -161t51 -140.5t83.5 -96t120.5 -37.5q66 0 117.5 37.5t82 96.5t50.5 140.5t27.5 161t7.5 166.5q0 88 -7 167.5t-27 160.5t-50.5 139.5t-82 95.5t-118.5 37q-83 0 -142.5 -54t-90 -146t-43.5 -190t-13 -210z" />
<glyph unicode="1" horiz-adv-x="589" d="M37 1057l295 309h102v-1366h-112v1212l-213 -231z" />
<glyph unicode="2" horiz-adv-x="976" d="M109 1169q130 217 372 217q95 0 174 -40t129 -122t50 -192q0 -55 -12.5 -109t-43 -117t-65 -120t-96.5 -141t-118 -156t-148 -188q-52 -65 -79 -99h566v-102h-723v96q46 56 129 158q80 98 117 143.5t95.5 119.5t84 110t63 91.5t52.5 88t32.5 74.5t23 77t5.5 72 q0 118 -69.5 185t-168.5 67q-193 0 -286 -178z" />
<glyph unicode="3" horiz-adv-x="935" d="M66 205l86 63q45 -87 118.5 -137.5t171.5 -50.5q130 0 198.5 78t68.5 215q0 76 -23.5 132t-64 86.5t-88.5 45t-105 14.5q-82 0 -98 -2v109q18 -2 98 -2q114 0 189 66t75 192q0 130 -69 199t-181 69q-90 0 -155.5 -44t-122.5 -128l-82 64q59 98 153.5 155t210.5 57 q159 0 260 -93t101 -267q0 -123 -71 -209t-167 -110q60 -10 116.5 -50.5t98 -117.5t41.5 -172q0 -173 -99.5 -282.5t-279.5 -109.5q-130 0 -228 65t-152 165z" />
<glyph unicode="4" horiz-adv-x="901" d="M49 375v104l500 887h147v-889h156v-102h-156v-375h-112v375h-535zM158 477h426v756z" />
<glyph unicode="5" horiz-adv-x="976" d="M119 203l84 65q49 -95 118.5 -141.5t172.5 -46.5q116 0 189 97.5t73 234.5q0 161 -68.5 248.5t-185.5 87.5q-75 0 -135.5 -31t-120.5 -103l-88 37v715h645v-102h-533v-535q44 54 110.5 87.5t145.5 33.5q151 0 248.5 -114.5t97.5 -321.5q0 -188 -107 -313.5t-269 -125.5 q-95 0 -168.5 29.5t-120.5 77.5t-88 121z" />
<glyph unicode="6" horiz-adv-x="978" d="M109 682q0 109 13.5 207.5t45 190.5t79.5 159t121.5 107t166.5 40q204 0 305 -180l-72 -76q-42 75 -95.5 113.5t-137.5 38.5q-85 0 -148 -54.5t-97 -145.5t-49.5 -192t-15.5 -212v-49q40 85 123 150t184 65q155 0 252 -112t97 -322q0 -66 -14.5 -128.5t-45 -118.5 t-73 -97.5t-103.5 -66t-133 -24.5q-90 0 -161 40t-115.5 106t-74 159t-41 191.5t-11.5 210.5zM229 506q3 -56 12 -109t30 -112.5t50.5 -103t78 -72.5t108.5 -29q65 0 115.5 29t80.5 77t45 104.5t15 117.5q0 172 -69.5 252.5t-184.5 80.5q-88 0 -162 -67t-119 -168z" />
<glyph unicode="7" horiz-adv-x="827" d="M57 1264v102h713v-78l-442 -1288h-123l436 1264h-584z" />
<glyph unicode="8" horiz-adv-x="964" d="M104 332q0 130 83.5 230t193.5 143q-48 18 -92 47.5t-82 70.5t-61 98t-23 121q0 84 30 151t80.5 108.5t114.5 63t135 21.5q70 0 133.5 -22t114 -63t81 -108t30.5 -151q0 -64 -23 -121t-61 -98t-81.5 -70.5t-90.5 -47.5q109 -43 191.5 -143t82.5 -228q0 -163 -104 -261 t-273 -98q-171 0 -275 97.5t-104 259.5zM221 342q0 -122 75 -192t187 -70q109 0 184.5 70.5t75.5 191.5q0 58 -22 110.5t-53.5 87t-69 61.5t-67 40t-48.5 16q-20 -3 -50 -16t-67.5 -40t-69.5 -61.5t-53.5 -87t-21.5 -110.5zM240 1032q0 -54 20.5 -101t49.5 -76.5t65 -53 t62 -34.5t46 -15q26 6 61 23t78.5 49t73 87t29.5 121q0 115 -67 182.5t-175 67.5q-110 0 -176.5 -67t-66.5 -183z" />
<glyph unicode="9" horiz-adv-x="978" d="M98 954q0 83 24 160t69 139t117 99t161 37q90 0 160 -40t115 -106t74 -159t40.5 -191.5t11.5 -210.5q0 -109 -13 -207.5t-44.5 -191t-79 -159t-122 -107t-167.5 -40.5q-200 0 -305 181l72 75q42 -75 95.5 -113t137.5 -38q70 0 125 37t89 96t56.5 140t31 162t8.5 169v49 q-38 -85 -122 -150t-186 -65q-153 0 -250.5 112t-97.5 322zM215 956q0 -172 69.5 -252.5t184.5 -80.5q89 0 163.5 67.5t117.5 167.5q-3 45 -10 89.5t-20 94.5t-34.5 91.5t-50 76.5t-70.5 54.5t-92 19.5q-86 0 -146.5 -50.5t-86 -122.5t-25.5 -155z" />
<glyph unicode=":" horiz-adv-x="444" d="M135 70q0 35 26.5 60.5t61.5 25.5q37 0 62.5 -25.5t25.5 -60.5q0 -37 -25.5 -62.5t-62.5 -25.5q-36 0 -62 26t-26 62zM135 915q0 35 26.5 62t61.5 27q36 0 62 -26.5t26 -62.5t-26 -62t-62 -26q-35 0 -61.5 26.5t-26.5 61.5z" />
<glyph unicode=";" horiz-adv-x="446" d="M117 -199q49 34 83.5 87.5t37.5 101.5l-9 -1q-9 -1 -12 -1q-36 0 -59 24t-23 60t25 61t61 25q42 0 71.5 -35.5t29.5 -95.5q0 -82 -41.5 -157t-104.5 -118zM135 915q0 35 26.5 62t61.5 27q36 0 62 -26.5t26 -62.5t-26 -62t-62 -26q-35 0 -61.5 26.5t-26.5 61.5z" />
<glyph unicode="&#x3c;" horiz-adv-x="892" d="M59 647v76l775 389v-98l-668 -330l668 -326v-98z" />
<glyph unicode="=" horiz-adv-x="892" d="M59 442v82h775v-82h-775zM59 844v82h775v-82h-775z" />
<glyph unicode="&#x3e;" horiz-adv-x="892" d="M59 260v98l670 326l-670 330v98l775 -389v-76z" />
<glyph unicode="?" horiz-adv-x="790" d="M66 1233q124 153 329 153q147 0 238.5 -86.5t91.5 -214.5q0 -82 -34 -150.5t-82 -115t-96 -90t-82 -96.5t-34 -113q0 -29 14.5 -59t37.5 -49l-84 -52q-72 72 -72 166q0 53 17.5 98.5t45 80t61 66.5t67.5 63.5t61.5 65t45 78t17.5 95.5q0 87 -60 149t-163 62 q-86 0 -145 -31.5t-109 -95.5zM301 70q0 35 26.5 60.5t61.5 25.5q37 0 62.5 -25.5t25.5 -60.5q0 -37 -25.5 -62.5t-62.5 -25.5q-36 0 -62 26t-26 62z" />
<glyph unicode="@" horiz-adv-x="1400" d="M72 471q0 130 38.5 256t108.5 229.5t161 183t202.5 123.5t226.5 44q231 0 375.5 -162t144.5 -420q0 -241 -94 -396t-215 -155q-72 0 -116 46.5t-46 113.5l-2 12q-49 -74 -120.5 -123t-155.5 -49q-108 0 -178 74.5t-70 214.5q0 141 57.5 270.5t157.5 210t215 80.5 q77 0 130 -46t75 -116l26 125h97l-123 -584q-4 -20 -4 -43q0 -104 81 -104q29 0 65 28t71.5 81.5t59.5 149t24 212.5q0 233 -127.5 373.5t-331.5 140.5q-131 0 -254.5 -65.5t-213 -172t-144 -247t-54.5 -283.5q0 -245 139 -399t357 -154q171 0 328 117l32 -51 q-175 -129 -368 -129q-160 0 -286.5 77.5t-197.5 217.5t-71 319zM436 469q0 -98 43 -155.5t123 -57.5q147 0 275 195l69 327q-16 64 -60 113t-114 49q-95 0 -174 -74.5t-120.5 -181.5t-41.5 -215z" />
<glyph unicode="A" horiz-adv-x="1009" d="M25 0l411 1366h137l412 -1366h-125l-98 338h-514l-98 -338h-125zM272 440h465l-231 793z" />
<glyph unicode="B" horiz-adv-x="1019" d="M154 0v1366h405q151 0 239.5 -93t88.5 -255q0 -124 -57 -205.5t-148 -107.5q96 -15 161.5 -114.5t65.5 -221.5q0 -173 -88 -271t-252 -98h-415zM268 102h283q118 0 179 73t61 202q0 115 -61.5 193.5t-178.5 78.5h-283v-547zM268 752h275q113 0 169 71t56 185 q0 112 -56.5 184t-168.5 72h-275v-512z" />
<glyph unicode="C" horiz-adv-x="1071" d="M109 682q0 204 61.5 364t178 251.5t269.5 91.5q238 0 379 -240l-96 -49q-99 184 -283 184q-175 0 -282 -169t-107 -433q0 -172 47.5 -308.5t136.5 -215t205 -78.5q95 0 167.5 55.5t117.5 149.5l96 -49q-138 -261 -381 -261q-153 0 -269.5 91.5t-178 251.5t-61.5 364z" />
<glyph unicode="D" horiz-adv-x="1126" d="M154 0v1366h331q168 0 290.5 -91.5t182.5 -244.5t60 -348q0 -197 -60 -349.5t-182 -242.5t-291 -90h-331zM268 102h217q133 0 227.5 77.5t139.5 206.5t45 296q0 166 -45 295.5t-139.5 208t-227.5 78.5h-217v-1162z" />
<glyph unicode="E" horiz-adv-x="927" d="M154 0v1366h667v-102h-553v-512h539v-103h-539v-547h553v-102h-667z" />
<glyph unicode="F" horiz-adv-x="903" d="M154 0v1366h667v-102h-553v-512h539v-103h-539v-649h-114z" />
<glyph unicode="G" horiz-adv-x="1132" d="M109 682q0 209 63 369.5t178.5 249t267.5 88.5q245 0 388 -236l-93 -49q-104 180 -295 180q-175 0 -282 -168t-107 -434q0 -265 107 -434.5t282 -169.5q91 0 164 37.5t117 93.5v364h-358v105h467v-512q-68 -91 -169.5 -141t-220.5 -50q-229 0 -369 195.5t-140 511.5z" />
<glyph unicode="H" horiz-adv-x="1146" d="M154 0v1366h114v-612h611v612h114v-1366h-114v651h-611v-651h-114z" />
<glyph unicode="I" horiz-adv-x="421" d="M154 0v1366h114v-1366h-114z" />
<glyph unicode="J" horiz-adv-x="798" d="M20 111l64 88q82 -119 213 -119q109 0 171 66.5t62 187.5v1032h115v-1034q0 -176 -94 -266.5t-248 -90.5q-175 0 -283 136z" />
<glyph unicode="K" horiz-adv-x="1005" d="M154 0v1366h114v-745l518 745h140l-467 -651l508 -715h-140l-436 633l-123 -174v-459h-114z" />
<glyph unicode="L" horiz-adv-x="823" d="M139 0v1366h115v-1264h510v-102h-625z" />
<glyph unicode="M" horiz-adv-x="1355" d="M154 0v1366h165l359 -1094l358 1094h166v-1366h-115v1188l-387 -1188h-45l-387 1188v-1188h-114z" />
<glyph unicode="N" horiz-adv-x="1142" d="M154 0v1366h114l606 -1112v1112h115v-1366h-110l-611 1128v-1128h-114z" />
<glyph unicode="O" horiz-adv-x="1208" d="M109 682q0 199 55.5 357t169.5 254t270 96q118 0 213.5 -55.5t157 -151.5t94.5 -224t33 -276t-33 -276t-94.5 -224t-157 -151.5t-213.5 -55.5q-156 0 -270 96t-169.5 254t-55.5 357zM229 682q0 -170 42 -304.5t128.5 -216t204.5 -81.5t205 81.5t129.5 216.5t42.5 304 q0 170 -42.5 305t-129.5 216t-205 81t-204.5 -81t-128.5 -215.5t-42 -305.5z" />
<glyph unicode="P" horiz-adv-x="958" d="M154 0v1366h376q115 0 198 -55.5t122 -144.5t39 -199q0 -109 -39.5 -197.5t-122.5 -144.5t-197 -56h-262v-569h-114zM268 672h254q115 0 181.5 82t66.5 215q0 131 -66.5 213t-181.5 82h-254v-592z" />
<glyph unicode="Q" horiz-adv-x="1208" d="M109 682q0 199 55.5 357t169.5 254t270 96q118 0 213.5 -55.5t157 -151.5t94.5 -224t33 -276q0 -174 -45.5 -320.5t-130.5 -242.5l84 -127l-84 -55l-78 114q-105 -76 -244 -76q-156 0 -270 96t-169.5 254t-55.5 357zM229 682q0 -170 42 -304.5t128.5 -216t204.5 -81.5 q103 0 184 63l-174 265l86 53l160 -242q121 172 121 463q0 170 -42.5 305t-129.5 216t-205 81t-204.5 -81t-128.5 -215.5t-42 -305.5z" />
<glyph unicode="R" horiz-adv-x="1005" d="M154 0v1366h378q158 0 258.5 -107t100.5 -290q0 -89 -24.5 -161t-66 -117.5t-92 -72.5t-106.5 -34l303 -584h-133l-285 569h-219v-569h-114zM268 672h254q115 0 181.5 82t66.5 215q0 131 -66.5 213t-181.5 82h-254v-592z" />
<glyph unicode="S" horiz-adv-x="940" d="M72 145l69 88q53 -67 135.5 -110t178.5 -43q137 0 206.5 73t69.5 181q0 60 -21 108.5t-57 82.5t-82.5 63.5t-98 55t-103 51.5t-98 59t-82.5 72t-57 95.5t-21 125.5q0 152 105.5 247t262.5 95q213 0 342 -142l-65 -86q-103 123 -279 123q-105 0 -176.5 -64.5t-71.5 -168.5 q0 -51 21 -93t57 -73t82.5 -58.5t97.5 -53t102.5 -53.5t98 -64t82.5 -78.5t57 -103.5t21 -134q0 -71 -23 -135t-69 -116t-123.5 -83t-177.5 -31q-121 0 -218.5 45t-164.5 125z" />
<glyph unicode="T" horiz-adv-x="890" d="M55 1264v102h783v-102h-336v-1264h-115v1264h-332z" />
<glyph unicode="U" horiz-adv-x="1130" d="M154 430v936h114v-936q0 -175 77 -263.5t220 -88.5t220 88.5t77 263.5v936h115v-936q0 -220 -108 -337.5t-304 -117.5t-303.5 117.5t-107.5 337.5z" />
<glyph unicode="V" horiz-adv-x="1009" d="M25 1366h125l356 -1225l354 1225h125l-412 -1366h-137z" />
<glyph unicode="W" horiz-adv-x="1421" d="M41 1366h123l246 -1182l249 1182h103l250 -1182l245 1182h123l-301 -1366h-127l-241 1149l-244 -1149h-125z" />
<glyph unicode="X" horiz-adv-x="1009" d="M25 0l411 696l-389 670h137l320 -569l321 569h136l-390 -668l412 -698h-133l-346 600l-344 -600h-135z" />
<glyph unicode="Y" horiz-adv-x="989" d="M16 1366h131l349 -666l348 666h129l-420 -780v-586h-115v586z" />
<glyph unicode="Z" horiz-adv-x="927" d="M86 0v100l608 1164h-608v102h741v-98l-610 -1166h625v-102h-756z" />
<glyph unicode="[" horiz-adv-x="409" d="M74 -389v1778h301v-86h-213v-1606h213v-86h-301z" />
<glyph unicode="\" horiz-adv-x="481" d="M0 1407h90l393 -1448h-90z" />
<glyph unicode="]" horiz-adv-x="409" d="M35 -303h213v1606h-213v86h301v-1778h-301v86z" />
<glyph unicode="^" horiz-adv-x="772" d="M39 682l307 684h82l305 -684h-92l-254 596l-254 -596h-94z" />
<glyph unicode="_" horiz-adv-x="864" d="M-6 -82h876v-86h-876v86z" />
<glyph unicode="`" horiz-adv-x="356" d="M0 1434h119l237 -295h-80z" />
<glyph unicode="a" horiz-adv-x="901" d="M94 305q0 149 85.5 238.5t211.5 89.5q166 0 262 -133v194q0 110 -55.5 170t-155.5 60q-143 0 -252 -129l-53 73q131 146 316 146q145 0 225 -77t80 -232v-705h-105v113q-98 -138 -262 -138q-125 0 -211 91t-86 239zM203 303q0 -105 58.5 -175.5t158.5 -70.5 q158 0 233 136v221q-76 137 -233 137q-100 0 -158.5 -71.5t-58.5 -176.5z" />
<glyph unicode="b" d="M145 0v1366h103v-528q45 85 115.5 130.5t150.5 45.5q164 0 257 -143t93 -377q0 -235 -93 -377t-257 -142q-80 0 -151 47.5t-115 124.5v-147h-103zM248 250q32 -75 101.5 -128.5t146.5 -53.5q85 0 144.5 59.5t86.5 153.5t27 213t-27 213.5t-86.5 154.5t-144.5 60 q-76 0 -145.5 -55t-102.5 -130v-487z" />
<glyph unicode="c" horiz-adv-x="819" d="M98 496q0 146 45 262.5t135 186t211 69.5q91 0 154 -33t115 -96l-62 -72q-80 109 -198 109q-93 0 -160 -60t-98 -154.5t-31 -211.5t31 -212t98 -155.5t160 -60.5q119 0 198 108l62 -72q-50 -64 -113.5 -96.5t-155.5 -32.5q-121 0 -211 70.5t-135 187.5t-45 263z" />
<glyph unicode="d" d="M98 494q0 233 93.5 376.5t257.5 143.5q80 0 150.5 -45.5t113.5 -130.5v528h104v-1366h-104v147q-42 -76 -114 -124t-150 -48q-165 0 -258 142.5t-93 376.5zM209 494q0 -120 26.5 -213.5t86 -153t145.5 -59.5q75 0 144.5 53.5t101.5 128.5v487q-33 75 -102 130t-144 55 q-86 0 -145.5 -60t-86 -154t-26.5 -214z" />
<glyph unicode="e" horiz-adv-x="950" d="M98 496q0 145 45 261.5t133 186.5t205 70q76 0 138.5 -27t106 -74.5t74 -113t44.5 -142.5t14 -163v-33h-649q3 -174 84.5 -286t218.5 -112q71 0 135 35t111 101l61 -62q-126 -162 -311 -162q-126 0 -220 67.5t-142 185t-48 268.5zM209 543h543q0 67 -15.5 132 t-46.5 122.5t-86 93t-125 35.5q-68 0 -121.5 -36t-84.5 -94.5t-47 -123t-17 -129.5z" />
<glyph unicode="f" horiz-adv-x="489" d="M45 897v92h131v139q0 120 60.5 189t166.5 69q97 0 158 -61l-47 -80q-43 49 -100 49q-66 0 -99.5 -43t-33.5 -123v-139h170v-92h-170v-897h-105v897h-131z" />
<glyph unicode="g" d="M98 496q0 233 93.5 375.5t257.5 142.5q80 0 150.5 -45.5t113.5 -130.5v151h104v-1016q0 -100 -28 -173.5t-78.5 -116.5t-114 -63.5t-141.5 -20.5q-100 0 -175 28t-143 97l56 86q98 -119 260 -119q116 0 188 70t72 212v183q-42 -77 -114 -126.5t-150 -49.5 q-165 0 -258 141t-93 375zM209 496q0 -119 26.5 -212t86 -151.5t145.5 -58.5q75 0 144.5 54t101.5 128v481q-33 75 -102 130t-144 55q-86 0 -145.5 -59.5t-86 -153t-26.5 -213.5z" />
<glyph unicode="h" horiz-adv-x="921" d="M145 0v1366h103v-522q47 71 126 120.5t161 49.5q123 0 183 -63t60 -201v-750h-104v729q0 103 -44 148t-126 45q-74 0 -145.5 -51.5t-110.5 -122.5v-748h-103z" />
<glyph unicode="i" horiz-adv-x="393" d="M117 1225q0 33 23.5 56.5t56.5 23.5q34 0 56.5 -23t22.5 -57q0 -33 -23 -56.5t-56 -23.5q-32 0 -56 24t-24 56zM145 0v989h103v-989h-103z" />
<glyph unicode="j" horiz-adv-x="393" d="M-129 -328l51 76q42 -57 103 -57q120 0 120 162v1136h103v-1136q0 -254 -217 -254q-99 0 -160 73zM117 1225q0 33 23.5 56.5t56.5 23.5q34 0 56.5 -23t22.5 -57q0 -33 -23 -56.5t-56 -23.5q-32 0 -56 24t-24 56z" />
<glyph unicode="k" horiz-adv-x="870" d="M145 0v1366h103v-952l461 575h122l-358 -446l356 -543h-124l-302 471l-155 -192v-279h-103z" />
<glyph unicode="l" horiz-adv-x="393" d="M145 0v1366h103v-1366h-103z" />
<glyph unicode="m" horiz-adv-x="1372" d="M145 0v989h103v-145q37 65 112 117.5t156 52.5q93 0 148.5 -49t66.5 -129q39 73 115.5 125.5t159.5 52.5q221 0 221 -256v-758h-105v737q0 185 -149 185q-66 0 -133.5 -51.5t-102.5 -122.5v-748h-104v737q0 185 -150 185q-67 0 -132 -51.5t-103 -122.5v-748h-103z" />
<glyph unicode="n" horiz-adv-x="921" d="M145 0v989h103v-145q47 71 126 120.5t161 49.5q122 0 182.5 -65t60.5 -201v-748h-104v725q0 197 -170 197q-74 0 -145.5 -51.5t-110.5 -122.5v-748h-103z" />
<glyph unicode="o" d="M98 496q0 85 15.5 162t47 142t76.5 112.5t107.5 74.5t136.5 27t136.5 -27t107.5 -74.5t76.5 -112.5t47 -142t15.5 -162t-15.5 -162t-47 -142.5t-76.5 -114t-107.5 -75.5t-136.5 -27t-136.5 27t-107.5 75.5t-76.5 114t-47 142.5t-15.5 162zM209 496q0 -83 16.5 -158 t48.5 -136.5t85.5 -97.5t121.5 -36q91 0 154.5 63.5t91 157.5t27.5 207q0 112 -27.5 205.5t-91 157t-154.5 63.5q-68 0 -121.5 -36t-85.5 -97.5t-48.5 -136t-16.5 -156.5z" />
<glyph unicode="p" horiz-adv-x="958" d="M145 -377v1366h103v-147q44 77 115 124.5t151 47.5q164 0 257 -142t93 -376t-93 -377.5t-257 -143.5q-79 0 -150 46t-116 131v-529h-103zM248 252q33 -75 102.5 -129.5t145.5 -54.5q85 0 144.5 60t86.5 154.5t27 213.5t-27 213t-86.5 153.5t-144.5 59.5q-76 0 -146 -53.5 t-102 -127.5v-489z" />
<glyph unicode="q" horiz-adv-x="958" d="M94 496q0 234 93 376t257 142q80 0 151.5 -47.5t113.5 -124.5v147h104v-1366h-104v529q-43 -85 -114 -131t-151 -46q-164 0 -257 143.5t-93 377.5zM205 496q0 -119 27 -213.5t86.5 -154.5t144.5 -60q75 0 145 55t101 129v489q-30 73 -100.5 127t-145.5 54 q-85 0 -144.5 -59.5t-86.5 -153.5t-27 -213z" />
<glyph unicode="r" horiz-adv-x="569" d="M145 0v989h103v-168q116 189 284 189v-113q-14 2 -45 2q-68 0 -137.5 -54t-101.5 -124v-721h-103z" />
<glyph unicode="s" horiz-adv-x="772" d="M66 115l59 73q95 -125 252 -125q94 0 151.5 50.5t57.5 132.5q0 52 -27 92t-71 66t-96.5 48.5t-105 48.5t-96.5 58t-71 83.5t-27 119.5q0 108 81.5 180t213.5 72q181 0 283 -127l-56 -72q-76 111 -227 111q-88 0 -141 -46t-53 -116q0 -48 27.5 -85t71 -61.5t96 -46.5 t105.5 -49t96.5 -60.5t71 -88t27.5 -125.5q0 -120 -84 -196.5t-225 -76.5q-196 0 -313 140z" />
<glyph unicode="t" horiz-adv-x="507" d="M35 897v92h135v271h102v-271h170v-92h-170v-702q0 -127 86 -127q58 0 91 45l40 -78q-60 -60 -147 -60q-172 0 -172 207v715h-135z" />
<glyph unicode="u" horiz-adv-x="921" d="M145 240v749h103v-727q0 -104 44 -149t128 -45q75 0 145 49.5t109 120.5v751h104v-989h-104v141q-51 -72 -126.5 -119t-160.5 -47q-123 0 -182.5 63.5t-59.5 201.5z" />
<glyph unicode="v" horiz-adv-x="802" d="M20 989h115l266 -866l269 866h112l-323 -989h-117z" />
<glyph unicode="w" horiz-adv-x="1263" d="M35 989h110l211 -842l226 842h98l225 -842l213 842h111l-266 -989h-103l-229 846l-228 -846h-102z" />
<glyph unicode="x" horiz-adv-x="804" d="M35 0l305 504l-289 485h119l233 -405l232 405h119l-289 -485l307 -504h-119l-250 426l-251 -426h-117z" />
<glyph unicode="y" horiz-adv-x="802" d="M20 989h115l266 -862l269 862h112l-399 -1214q-32 -93 -83 -134.5t-128 -41.5q-55 0 -90 14l18 94q29 -16 66 -16q44 0 71 24.5t50 87.5l59 177z" />
<glyph unicode="z" horiz-adv-x="776" d="M96 0v86l453 811h-453v92h578v-84l-455 -813h463v-92h-586z" />
<glyph unicode="{" horiz-adv-x="454" d="M12 461v78q51 0 79 42t28 103v477q0 100 62 164t143 64h96v-86h-96q-48 0 -81.5 -40t-33.5 -102v-481q0 -140 -94 -180q94 -40 94 -181v-481q0 -61 33.5 -101t81.5 -40h96v-86h-96q-81 0 -143 63.5t-62 163.5v477q0 61 -28 103.5t-79 42.5z" />
<glyph unicode="|" horiz-adv-x="393" d="M154 -41v1448h86v-1448h-86z" />
<glyph unicode="}" horiz-adv-x="454" d="M35 -303h94q48 0 82.5 40.5t34.5 100.5v481q0 142 92 181q-92 39 -92 180v481q0 62 -34.5 102t-82.5 40h-94v86h94q81 0 143 -64t62 -164v-477q0 -61 27.5 -103t78.5 -42v-78q-51 0 -78.5 -42.5t-27.5 -103.5v-477q0 -100 -62 -163.5t-143 -63.5h-94v86z" />
<glyph unicode="~" horiz-adv-x="907" d="M57 887q5 62 12 113t18.5 108.5t30 100.5t43 79t59.5 55t79 19q62 0 103 -41.5t60.5 -101t35.5 -119t42.5 -101t67.5 -41.5q67 0 101.5 98t54.5 310l86 -8q-6 -77 -14.5 -137.5t-26.5 -127.5t-43 -111.5t-65.5 -73.5t-92.5 -29q-62 0 -103.5 41.5t-61 100.5t-36 117.5 t-42.5 100t-66 41.5q-68 0 -102 -97.5t-54 -308.5z" />
<glyph unicode="&#xa1;" horiz-adv-x="446" d="M135 920q0 37 25.5 62.5t62.5 25.5t62.5 -25.5t25.5 -62.5q0 -35 -25.5 -60.5t-62.5 -25.5t-62.5 25.5t-25.5 60.5zM156 -377l26 1012h82l27 -1012h-135z" />
<glyph unicode="&#xa2;" horiz-adv-x="819" d="M98 496q0 200 86 341.5t238 170.5v149h90v-143q147 -8 246 -129l-62 -72q-76 103 -184 109v-854q111 6 184 108l62 -72q-47 -60 -105 -92.5t-141 -36.5v-180h-90v187q-101 18 -175 91t-111.5 182t-37.5 241zM209 496q0 -154 55.5 -268.5t157.5 -147.5v829 q-102 -33 -157.5 -147t-55.5 -266z" />
<glyph unicode="&#xa3;" horiz-adv-x="886" d="M49 549v84h205q-5 7 -29 40t-31.5 45t-27 42.5t-27 52t-18.5 53t-15 64t-4 69.5q0 102 45.5 190t130.5 142.5t191 54.5q113 0 199.5 -58.5t124.5 -160.5l-93 -51q-26 73 -84.5 122.5t-140.5 49.5q-103 0 -177.5 -79.5t-74.5 -211.5q0 -62 17.5 -118t36.5 -88t54.5 -83 t49.5 -75h233v-84h-194q18 -50 18 -113q0 -89 -42.5 -166.5t-110.5 -132.5q51 21 94 21q59 0 137.5 -40t124.5 -40q52 0 100 24t68 54l51 -90q-34 -40 -95.5 -66.5t-129.5 -26.5q-53 0 -95 14t-65 31t-59 31t-78 14q-81 0 -199 -77l-45 92q113 59 176.5 151t63.5 191 q0 58 -29 129h-256z" />
<glyph unicode="&#xa4;" horiz-adv-x="1069" d="M74 281l114 114q-102 127 -102 287q0 163 102 287l-114 116l57 58l117 -115q120 102 287 102q162 0 286 -102l115 115l59 -58l-114 -116q102 -124 102 -287q0 -160 -102 -287l114 -114l-59 -60l-115 117q-124 -105 -286 -105q-163 0 -287 105l-117 -117zM184 682 q0 -145 103 -247.5t248 -102.5t247.5 102.5t102.5 247.5q0 146 -102.5 248t-247.5 102t-248 -102t-103 -248z" />
<glyph unicode="&#xa5;" horiz-adv-x="989" d="M16 1366h131l349 -666l348 666h129l-377 -698h350v-82h-393v-246h393v-82h-393v-258h-115v258h-395v82h395v246h-395v82h350z" />
<glyph unicode="&#xa6;" horiz-adv-x="393" d="M154 -41v647h86v-647h-86zM154 760v647h86v-647h-86z" />
<glyph unicode="&#xa7;" horiz-adv-x="774" d="M66 -25l59 70q41 -52 105 -89.5t147 -37.5q91 0 150 52t59 134q0 47 -21 84.5t-56 61.5t-79.5 47t-90.5 41t-90.5 44.5t-79.5 56.5t-56 77.5t-21 106.5q0 89 58 155t155 86q-110 57 -161.5 120.5t-51.5 152.5q0 108 80 178.5t209 70.5q185 0 289 -126l-58 -66 q-87 111 -227 111q-85 0 -138.5 -47t-53.5 -121q0 -50 27.5 -87.5t71 -62t96 -47t105.5 -49t96.5 -60t71 -88t27.5 -125.5q0 -81 -43.5 -145t-130.5 -100q89 -53 131.5 -115.5t42.5 -151.5q0 -121 -86 -196.5t-223 -75.5q-109 0 -180 35.5t-133 105.5zM190 631 q0 -32 12.5 -60t31 -48t53.5 -41.5t64.5 -35.5t80.5 -36q156 72 156 198q0 46 -17 82.5t-49.5 62.5t-59 40.5t-65.5 31.5q-207 -47 -207 -194z" />
<glyph unicode="&#xa8;" horiz-adv-x="532" d="M18 1231q0 31 22.5 52.5t53.5 21.5t52.5 -21.5t21.5 -52.5t-21.5 -53.5t-52.5 -22.5t-53.5 22.5t-22.5 53.5zM362 1231q0 31 22.5 52.5t53.5 21.5t53.5 -21.5t22.5 -52.5t-22.5 -53.5t-53.5 -22.5t-53.5 22.5t-22.5 53.5z" />
<glyph unicode="&#xa9;" horiz-adv-x="1593" d="M90 684q0 192 95 355t258 257.5t354 94.5q144 0 275 -56t225 -150.5t150 -225.5t56 -275q0 -143 -56 -274t-150 -226t-225 -151t-275 -56q-191 0 -354 95t-258 258t-95 354zM147 684q0 -175 87.5 -324.5t237.5 -237t325 -87.5t324.5 87.5t237 237t87.5 324.5t-87.5 324.5 t-237 237t-324.5 87.5t-325 -87.5t-237.5 -237t-87.5 -324.5zM373 686q0 188 124 313t304 125q181 0 295 -133l-45 -45q-39 53 -108 85t-142 32q-96 0 -177.5 -45.5t-132.5 -133t-51 -198.5q0 -162 107.5 -270.5t253.5 -108.5q74 0 142 32.5t108 86.5l45 -45 q-116 -135 -295 -135t-303.5 127.5t-124.5 312.5z" />
<glyph unicode="&#xaa;" horiz-adv-x="661" d="M78 866q0 97 58 154t143 57q114 0 182 -86v123q0 69 -40.5 105t-103.5 36q-101 0 -170 -88l-41 62q91 98 224 98q215 0 215 -223v-436h-84v71q-67 -88 -182 -88q-85 0 -143 59t-58 156zM164 866q0 -67 38 -110t103 -43q105 0 156 86v133q-51 86 -156 86 q-64 0 -102.5 -43.5t-38.5 -108.5z" />
<glyph unicode="&#xab;" horiz-adv-x="716" d="M61 498l256 362h105l-256 -362l256 -369h-105zM295 498l256 362h104l-256 -362l256 -369h-104z" />
<glyph unicode="&#xac;" horiz-adv-x="894" d="M59 844v82h775v-484h-86v402h-689z" />
<glyph unicode="&#xad;" horiz-adv-x="544" d="M61 449v94h422v-94h-422z" />
<glyph unicode="&#xae;" horiz-adv-x="1011" d="M72 952q0 181 127 307.5t307 126.5q119 0 219 -57.5t157.5 -157.5t57.5 -219q0 -180 -126.5 -307t-307.5 -127q-180 0 -307 127t-127 307zM127 952q0 -156 111.5 -267.5t267.5 -111.5t267.5 111.5t111.5 267.5q0 158 -111 268.5t-268 110.5t-268 -110.5t-111 -268.5z M342 702v498h203q65 0 109 -42t44 -109q0 -72 -46 -110t-81 -38l134 -199h-78l-129 197h-95v-197h-61zM403 958h142q34 0 62 27t28 64q0 40 -28 67t-62 27h-142v-185z" />
<glyph unicode="&#xaf;" horiz-adv-x="622" d="M0 1210v76h623v-76h-623z" />
<glyph unicode="&#xb0;" horiz-adv-x="575" d="M51 1149q0 98 69 167.5t167 69.5t167.5 -69.5t69.5 -167.5t-69.5 -168t-167.5 -70t-167 70t-69 168zM129 1149q0 -66 46.5 -112t111.5 -46t112 46t47 112q0 65 -47.5 112.5t-111.5 47.5t-111 -47.5t-47 -112.5z" />
<glyph unicode="&#xb1;" horiz-adv-x="892" d="M59 53v82h775v-82h-775zM59 655v82h342v373h91v-373h342v-82h-342v-385h-91v385h-342z" />
<glyph unicode="&#xb2;" horiz-adv-x="653" d="M84 1565q40 62 104.5 95.5t143.5 33.5q100 0 168.5 -58t68.5 -163q0 -43 -16 -88.5t-40.5 -87t-73.5 -101t-93.5 -109t-122.5 -132.5q-5 -5 -8.5 -9t-7.5 -8h366v-76h-487v70q219 229 274 296q104 125 117 210q2 16 2 32q0 70 -43.5 109t-107.5 39q-61 0 -110 -28.5 t-77 -78.5z" />
<glyph unicode="&#xb3;" horiz-adv-x="653" d="M70 983l59 53q68 -112 193 -112q79 0 122 43.5t43 119.5q0 84 -51 122t-129 38q-53 0 -63 -2v76q10 -2 61 -2q75 0 122.5 38t47.5 111q0 72 -43.5 111t-112.5 39q-112 0 -182 -102l-57 51q39 59 102.5 93t141.5 34q106 0 173.5 -56.5t67.5 -160.5q0 -76 -46.5 -127 t-108.5 -64q62 -9 115 -63.5t53 -139.5q0 -105 -67.5 -170t-186.5 -65q-88 0 -153.5 38t-100.5 97z" />
<glyph unicode="&#xb4;" horiz-adv-x="356" d="M0 1139l238 295h118l-276 -295h-80z" />
<glyph unicode="&#xb6;" horiz-adv-x="919" d="M55 1014q0 146 103.5 249t249.5 103h344v-1571h-76v1495h-193v-1495h-75v867q-146 0 -249.5 103t-103.5 249z" />
<glyph unicode="&#xb7;" horiz-adv-x="446" d="M135 502q0 35 26.5 60.5t61.5 25.5q37 0 62.5 -25.5t25.5 -60.5q0 -37 -25.5 -62.5t-62.5 -25.5q-36 0 -62 26t-26 62z" />
<glyph unicode="&#xb8;" horiz-adv-x="364" d="M0 -328l33 66q63 -57 141 -57q48 0 82.5 25.5t34.5 66.5q0 37 -19.5 58.5t-54.5 21.5q-41 0 -72 -35l-55 32l64 173h75l-53 -140q30 23 68 23q52 0 86.5 -36.5t34.5 -96.5q0 -70 -55 -115t-136 -45q-104 0 -174 59z" />
<glyph unicode="&#xb9;" horiz-adv-x="425" d="M35 1483l192 198h80v-819h-90v701l-129 -138z" />
<glyph unicode="&#xba;" horiz-adv-x="702" d="M80 989q0 144 72.5 241t197.5 97q127 0 200 -97t73 -241q0 -143 -73 -240.5t-200 -97.5q-124 0 -197 97.5t-73 240.5zM170 989q0 -112 46.5 -188t133.5 -76q89 0 135.5 76t46.5 188t-46.5 187t-135.5 75q-88 0 -134 -75t-46 -187z" />
<glyph unicode="&#xbb;" horiz-adv-x="716" d="M61 129l256 369l-256 362h105l256 -362l-256 -369h-105zM295 129l256 369l-256 362h104l256 -362l-256 -369h-104z" />
<glyph unicode="&#xbc;" horiz-adv-x="1318" d="M35 1167l192 199h80v-819h-90v700l-129 -137zM217 0l715 1366h84l-715 -1366h-84zM729 219v74l315 526h115v-524h101v-76h-101v-219h-88v219h-342zM813 295h258v430z" />
<glyph unicode="&#xbd;" horiz-adv-x="1390" d="M35 1167l192 199h80v-819h-90v700l-129 -137zM217 0l715 1366h84l-715 -1366h-84zM821 702q40 62 104.5 95.5t143.5 33.5q100 0 169 -58t69 -163q0 -43 -15.5 -87.5t-40.5 -86t-71 -98t-92.5 -107.5t-118.5 -129q-17 -17 -25 -26h367v-76h-488v70q15 15 43 45 q209 218 280 312t71 181q0 70 -44 109t-108 39q-61 0 -109.5 -28.5t-76.5 -78.5z" />
<glyph unicode="&#xbe;" horiz-adv-x="1476" d="M70 668l59 53q68 -113 193 -113q79 0 122 44t43 120q0 84 -51 122t-129 38q-53 0 -63 -2v76q10 -2 61 -2q75 0 122.5 38t47.5 111q0 72 -43.5 111t-112.5 39q-112 0 -182 -103l-57 51q39 59 102.5 93t141.5 34q106 0 173.5 -56.5t67.5 -160.5q0 -76 -46.5 -126.5 t-108.5 -63.5q62 -9 115 -63.5t53 -139.5q0 -105 -67.5 -170.5t-186.5 -65.5q-87 0 -153 38t-101 98zM375 0l715 1366h84l-715 -1366h-84zM887 219v74l315 526h115v-524h100v-76h-100v-219h-88v219h-342zM971 295h258v430z" />
<glyph unicode="&#xbf;" horiz-adv-x="671" d="M66 -102q0 60 18 113t47 91.5t64 73.5t70.5 67.5t64.5 64.5t47 71.5t18 83.5q0 30 -14.5 60t-38.5 50l84 50q72 -66 72 -164q0 -61 -23.5 -113.5t-58.5 -88.5t-76 -75.5t-76 -75t-58.5 -86.5t-23.5 -110q0 -85 61 -148t163 -63q86 0 144.5 31.5t111.5 97.5l63 -78 q-124 -153 -330 -153q-147 0 -238 87t-91 214zM313 920q0 36 26 62t62 26q37 0 62.5 -25.5t25.5 -62.5q0 -35 -25.5 -60.5t-62.5 -25.5q-35 0 -61.5 25.5t-26.5 60.5z" />
<glyph unicode="&#xc0;" horiz-adv-x="1009" d="M25 0l411 1366h137l412 -1366h-125l-98 338h-514l-98 -338h-125zM256 1786h119l237 -295h-80zM272 440h465l-231 793z" />
<glyph unicode="&#xc1;" horiz-adv-x="1009" d="M25 0l411 1366h137l412 -1366h-125l-98 338h-514l-98 -338h-125zM272 440h465l-231 793zM399 1491l238 295h119l-277 -295h-80z" />
<glyph unicode="&#xc2;" horiz-adv-x="1009" d="M25 0l411 1366h137l412 -1366h-125l-98 338h-514l-98 -338h-125zM272 440h465l-231 793zM283 1491l168 295h106l174 -295h-74l-153 229l-148 -229h-73z" />
<glyph unicode="&#xc3;" horiz-adv-x="1009" d="M25 0l411 1366h137l412 -1366h-125l-98 338h-514l-98 -338h-125zM240 1499q0 121 41.5 198t121.5 77q37 0 64.5 -21.5t43 -53t29 -62.5t31.5 -52.5t43 -21.5q42 0 67.5 49t25.5 149h67q0 -121 -42.5 -197.5t-123.5 -76.5q-37 0 -63.5 21.5t-42 52.5t-29 62.5t-31.5 53 t-43 21.5q-42 0 -67 -49.5t-25 -149.5h-67zM272 440h465l-231 793z" />
<glyph unicode="&#xc4;" horiz-adv-x="1009" d="M25 0l411 1366h137l412 -1366h-125l-98 338h-514l-98 -338h-125zM258 1575q0 31 22.5 52.5t53.5 21.5t52.5 -21.5t21.5 -52.5t-21.5 -53.5t-52.5 -22.5t-53.5 22.5t-22.5 53.5zM272 440h465l-231 793zM602 1575q0 31 22.5 52.5t53.5 21.5t53.5 -21.5t22.5 -52.5 t-22.5 -53.5t-53.5 -22.5t-53.5 22.5t-22.5 53.5z" />
<glyph unicode="&#xc5;" horiz-adv-x="1009" d="M25 0l411 1366h137l412 -1366h-125l-98 338h-514l-98 -338h-125zM272 440h465l-231 793zM326 1599q0 74 53.5 127.5t126.5 53.5q74 0 126 -53.5t52 -127.5q0 -75 -51.5 -128.5t-126.5 -53.5q-74 0 -127 53.5t-53 128.5zM389 1599q0 -49 34.5 -83.5t82.5 -34.5q49 0 83 34 t34 84q0 48 -34 82.5t-83 34.5q-47 0 -82 -35t-35 -82z" />
<glyph unicode="&#xc6;" horiz-adv-x="1507" d="M33 0l651 1366h713v-102h-553v-512h538v-103h-538v-547h553v-102h-668v338h-416l-155 -338h-125zM356 440h373v793z" />
<glyph unicode="&#xc7;" horiz-adv-x="1071" d="M109 682q0 204 61.5 364t178 251.5t269.5 91.5q238 0 379 -240l-96 -49q-99 184 -283 184q-175 0 -282 -169t-107 -433q0 -172 47.5 -308.5t136.5 -215t205 -78.5q95 0 167.5 55.5t117.5 149.5l96 -49q-134 -249 -356 -259l-33 -86q30 23 68 23q52 0 86.5 -36.5 t34.5 -96.5q0 -70 -55 -115t-136 -45q-103 0 -174 60l33 65q63 -57 141 -57q48 0 82.5 25.5t34.5 66.5q0 37 -19.5 58.5t-54.5 21.5q-39 0 -71 -35l-56 33l43 121q-139 14 -243.5 108.5t-159.5 248t-55 345.5z" />
<glyph unicode="&#xc8;" horiz-adv-x="927" d="M154 0v1366h667v-102h-553v-512h539v-103h-539v-547h553v-102h-667zM242 1786h118l238 -295h-80z" />
<glyph unicode="&#xc9;" horiz-adv-x="927" d="M154 0v1366h667v-102h-553v-512h539v-103h-539v-547h553v-102h-667zM383 1491l238 295h118l-276 -295h-80z" />
<glyph unicode="&#xca;" horiz-adv-x="927" d="M154 0v1366h667v-102h-553v-512h539v-103h-539v-547h553v-102h-667zM266 1491l168 295h107l174 -295h-74l-154 229l-147 -229h-74z" />
<glyph unicode="&#xcb;" horiz-adv-x="927" d="M154 0v1366h667v-102h-553v-512h539v-103h-539v-547h553v-102h-667zM240 1575q0 31 22 52.5t53 21.5t52.5 -21.5t21.5 -52.5t-21.5 -53.5t-52.5 -22.5t-53 22.5t-22 53.5zM584 1575q0 31 22 52.5t53 21.5t53.5 -21.5t22.5 -52.5t-22.5 -53.5t-53.5 -22.5t-53 22.5 t-22 53.5z" />
<glyph unicode="&#xcc;" horiz-adv-x="421" d="M-37 1786h119l237 -295h-79zM154 0v1366h114v-1366h-114z" />
<glyph unicode="&#xcd;" horiz-adv-x="421" d="M106 1491l238 295h119l-277 -295h-80zM154 0v1366h114v-1366h-114z" />
<glyph unicode="&#xce;" horiz-adv-x="421" d="M-10 1491l168 295h106l174 -295h-73l-154 229l-148 -229h-73zM154 0v1366h114v-1366h-114z" />
<glyph unicode="&#xcf;" horiz-adv-x="421" d="M-35 1573q0 31 22.5 52.5t53.5 21.5t52.5 -21.5t21.5 -52.5t-21.5 -53.5t-52.5 -22.5t-53.5 22.5t-22.5 53.5zM154 0v1366h114v-1366h-114zM309 1573q0 31 22.5 52.5t53.5 21.5t53.5 -21.5t22.5 -52.5t-22.5 -53.5t-53.5 -22.5t-53.5 22.5t-22.5 53.5z" />
<glyph unicode="&#xd0;" horiz-adv-x="1175" d="M35 635v90h168v641h332q127 0 228.5 -52.5t167.5 -145t101 -217t35 -269.5q0 -197 -60 -349.5t-181.5 -242.5t-290.5 -90h-332v635h-168zM317 102h218q133 0 227.5 77.5t139 206.5t44.5 296q0 166 -44.5 295.5t-139 208t-227.5 78.5h-218v-539h269v-90h-269v-533z" />
<glyph unicode="&#xd1;" horiz-adv-x="1142" d="M154 0v1366h114l606 -1112v1112h115v-1366h-110l-611 1128v-1128h-114zM299 1499q0 120 42 197.5t122 77.5q37 0 64.5 -21.5t43 -53t29 -62.5t31.5 -52.5t43 -21.5q42 0 67 49t25 149h68q0 -121 -42.5 -197.5t-123.5 -76.5q-37 0 -63.5 21.5t-42 52.5t-29 62.5t-31.5 53 t-43 21.5q-42 0 -67 -49.5t-25 -149.5h-68z" />
<glyph unicode="&#xd2;" horiz-adv-x="1208" d="M109 682q0 199 55.5 357t169.5 254t270 96q118 0 213.5 -55.5t157 -151.5t94.5 -224t33 -276t-33 -276t-94.5 -224t-157 -151.5t-213.5 -55.5q-156 0 -270 96t-169.5 254t-55.5 357zM229 682q0 -170 42 -304.5t128.5 -216t204.5 -81.5t205 81.5t129.5 216.5t42.5 304 q0 170 -42.5 305t-129.5 216t-205 81t-204.5 -81t-128.5 -215.5t-42 -305.5zM358 1786h119l238 -295h-80z" />
<glyph unicode="&#xd3;" horiz-adv-x="1208" d="M109 682q0 199 55.5 357t169.5 254t270 96q118 0 213.5 -55.5t157 -151.5t94.5 -224t33 -276t-33 -276t-94.5 -224t-157 -151.5t-213.5 -55.5q-156 0 -270 96t-169.5 254t-55.5 357zM229 682q0 -170 42 -304.5t128.5 -216t204.5 -81.5t205 81.5t129.5 216.5t42.5 304 q0 170 -42.5 305t-129.5 216t-205 81t-204.5 -81t-128.5 -215.5t-42 -305.5zM500 1491l237 295h119l-276 -295h-80z" />
<glyph unicode="&#xd4;" horiz-adv-x="1208" d="M109 682q0 199 55.5 357t169.5 254t270 96q118 0 213.5 -55.5t157 -151.5t94.5 -224t33 -276t-33 -276t-94.5 -224t-157 -151.5t-213.5 -55.5q-156 0 -270 96t-169.5 254t-55.5 357zM229 682q0 -170 42 -304.5t128.5 -216t204.5 -81.5t205 81.5t129.5 216.5t42.5 304 q0 170 -42.5 305t-129.5 216t-205 81t-204.5 -81t-128.5 -215.5t-42 -305.5zM383 1491l168 295h106l174 -295h-73l-154 229l-147 -229h-74z" />
<glyph unicode="&#xd5;" horiz-adv-x="1208" d="M109 682q0 199 55.5 357t169.5 254t270 96q118 0 213.5 -55.5t157 -151.5t94.5 -224t33 -276t-33 -276t-94.5 -224t-157 -151.5t-213.5 -55.5q-156 0 -270 96t-169.5 254t-55.5 357zM229 682q0 -170 42 -304.5t128.5 -216t204.5 -81.5t205 81.5t129.5 216.5t42.5 304 q0 170 -42.5 305t-129.5 216t-205 81t-204.5 -81t-128.5 -215.5t-42 -305.5zM338 1499q0 120 42 197.5t122 77.5q37 0 64.5 -21.5t43 -53t29 -62.5t31.5 -52.5t43 -21.5q42 0 67 49t25 149h67q0 -121 -42 -197.5t-123 -76.5q-37 0 -63.5 21.5t-42 52.5t-29 62.5t-31.5 53 t-43 21.5q-42 0 -67 -49.5t-25 -149.5h-68z" />
<glyph unicode="&#xd6;" horiz-adv-x="1208" d="M109 682q0 199 55.5 357t169.5 254t270 96q118 0 213.5 -55.5t157 -151.5t94.5 -224t33 -276t-33 -276t-94.5 -224t-157 -151.5t-213.5 -55.5q-156 0 -270 96t-169.5 254t-55.5 357zM229 682q0 -170 42 -304.5t128.5 -216t204.5 -81.5t205 81.5t129.5 216.5t42.5 304 q0 170 -42.5 305t-129.5 216t-205 81t-204.5 -81t-128.5 -215.5t-42 -305.5zM354 1575q0 31 22.5 52.5t53.5 21.5t52.5 -21.5t21.5 -52.5t-21.5 -53.5t-52.5 -22.5t-53.5 22.5t-22.5 53.5zM698 1575q0 31 22.5 52.5t53.5 21.5t53.5 -21.5t22.5 -52.5t-22.5 -53.5 t-53.5 -22.5t-53.5 22.5t-22.5 53.5z" />
<glyph unicode="&#xd7;" horiz-adv-x="892" d="M121 416l268 268l-268 268l59 58l266 -269l269 269l59 -58l-268 -268l268 -268l-59 -58l-269 269l-266 -269z" />
<glyph unicode="&#xd8;" horiz-adv-x="1208" d="M109 682q0 199 55.5 357t169.5 254t270 96q143 0 264 -93l35 70h96l-67 -131q83 -96 126.5 -239.5t43.5 -313.5q0 -148 -33 -276t-94.5 -224t-157 -151.5t-213.5 -55.5q-153 0 -266 93l-35 -68h-96l65 131q-80 95 -121.5 238t-41.5 313zM229 682q0 -271 103 -436l485 950 q-91 88 -213 88q-118 0 -204.5 -81t-128.5 -215.5t-42 -305.5zM389 170q90 -90 215 -90q118 0 205 81.5t129.5 216.5t42.5 304q0 273 -107 440z" />
<glyph unicode="&#xd9;" horiz-adv-x="1130" d="M154 430v936h114v-936q0 -175 77 -263.5t220 -88.5t220 88.5t77 263.5v936h115v-936q0 -220 -108 -337.5t-304 -117.5t-303.5 117.5t-107.5 337.5zM317 1786h119l238 -295h-80z" />
<glyph unicode="&#xda;" horiz-adv-x="1130" d="M154 430v936h114v-936q0 -175 77 -263.5t220 -88.5t220 88.5t77 263.5v936h115v-936q0 -220 -108 -337.5t-304 -117.5t-303.5 117.5t-107.5 337.5zM457 1491l237 295h119l-276 -295h-80z" />
<glyph unicode="&#xdb;" horiz-adv-x="1130" d="M154 430v936h114v-936q0 -175 77 -263.5t220 -88.5t220 88.5t77 263.5v936h115v-936q0 -220 -108 -337.5t-304 -117.5t-303.5 117.5t-107.5 337.5zM344 1491l168 295h106l175 -295h-74l-154 229l-147 -229h-74z" />
<glyph unicode="&#xdc;" horiz-adv-x="1130" d="M154 430v936h114v-936q0 -175 77 -263.5t220 -88.5t220 88.5t77 263.5v936h115v-936q0 -220 -108 -337.5t-304 -117.5t-303.5 117.5t-107.5 337.5zM317 1575q0 31 22.5 52.5t53.5 21.5t52.5 -21.5t21.5 -52.5t-21.5 -53.5t-52.5 -22.5t-53.5 22.5t-22.5 53.5zM662 1575 q0 31 22 52.5t53 21.5t53.5 -21.5t22.5 -52.5t-22.5 -53.5t-53.5 -22.5t-53 22.5t-22 53.5z" />
<glyph unicode="&#xdd;" horiz-adv-x="989" d="M16 1366h131l349 -666l348 666h129l-420 -780v-586h-115v586zM397 1491l238 295h119l-277 -295h-80z" />
<glyph unicode="&#xde;" horiz-adv-x="958" d="M154 0v1366h114v-254h262q115 0 198 -56t122 -145.5t39 -199.5t-39.5 -198t-122.5 -143t-197 -55h-262v-315h-114zM268 418h254q115 0 181.5 81t66.5 212q0 132 -66.5 214.5t-181.5 82.5h-254v-590z" />
<glyph unicode="&#xdf;" horiz-adv-x="1026" d="M156 0v1065q0 140 87 230.5t228 90.5q126 0 211.5 -67.5t85.5 -171.5q0 -43 -14.5 -79.5t-38 -62.5t-51.5 -48.5t-56 -43.5t-51.5 -43t-38 -50.5t-14.5 -61.5q0 -43 21 -76.5t55 -55t77.5 -43t89 -39t89 -44.5t77.5 -58.5t55 -81t21 -112.5q0 -113 -82 -193t-223 -80 q-107 0 -176.5 36t-130.5 106l57 76q100 -130 244 -130q92 0 149.5 53.5t57.5 131.5q0 52 -26.5 91.5t-69.5 65t-94.5 48t-103 47.5t-94.5 56.5t-69.5 82.5t-26.5 117q0 56 27 102t65.5 77.5t77.5 61t66 66t27 78.5q0 66 -58 109.5t-135 43.5q-92 0 -151.5 -60t-59.5 -169 v-1065h-104z" />
<glyph unicode="&#xe0;" horiz-adv-x="901" d="M94 305q0 149 85.5 238.5t211.5 89.5q166 0 262 -133v194q0 110 -55.5 170t-155.5 60q-143 0 -252 -129l-53 73q131 146 316 146q145 0 225 -77t80 -232v-705h-105v113q-98 -138 -262 -138q-125 0 -211 91t-86 239zM203 303q0 -105 58.5 -175.5t158.5 -70.5 q158 0 233 136v221q-76 137 -233 137q-100 0 -158.5 -71.5t-58.5 -176.5zM205 1434h119l237 -295h-80z" />
<glyph unicode="&#xe1;" horiz-adv-x="901" d="M94 305q0 149 85.5 238.5t211.5 89.5q166 0 262 -133v194q0 110 -55.5 170t-155.5 60q-143 0 -252 -129l-53 73q131 146 316 146q145 0 225 -77t80 -232v-705h-105v113q-98 -138 -262 -138q-125 0 -211 91t-86 239zM203 303q0 -105 58.5 -175.5t158.5 -70.5 q158 0 233 136v221q-76 137 -233 137q-100 0 -158.5 -71.5t-58.5 -176.5zM348 1139l238 295h119l-277 -295h-80z" />
<glyph unicode="&#xe2;" horiz-adv-x="901" d="M94 305q0 149 85.5 238.5t211.5 89.5q166 0 262 -133v194q0 110 -55.5 170t-155.5 60q-143 0 -252 -129l-53 73q131 146 316 146q145 0 225 -77t80 -232v-705h-105v113q-98 -138 -262 -138q-125 0 -211 91t-86 239zM203 303q0 -105 58.5 -175.5t158.5 -70.5 q158 0 233 136v221q-76 137 -233 137q-100 0 -158.5 -71.5t-58.5 -176.5zM233 1139l168 295h107l174 -295h-74l-153 229l-148 -229h-74z" />
<glyph unicode="&#xe3;" horiz-adv-x="901" d="M94 305q0 149 85.5 238.5t211.5 89.5q166 0 262 -133v194q0 110 -55.5 170t-155.5 60q-143 0 -252 -129l-53 73q131 146 316 146q145 0 225 -77t80 -232v-705h-105v113q-98 -138 -262 -138q-125 0 -211 91t-86 239zM188 1147q0 120 42 197t122 77q37 0 64.5 -21.5 t43 -52.5t29 -62.5t31.5 -53t43 -21.5q42 0 67 49.5t25 149.5h68q0 -121 -42.5 -197.5t-123.5 -76.5q-37 0 -63.5 21.5t-42 52.5t-29 62.5t-31.5 53t-43 21.5q-42 0 -67 -49.5t-25 -149.5h-68zM203 303q0 -105 58.5 -175.5t158.5 -70.5q158 0 233 136v221q-76 137 -233 137 q-100 0 -158.5 -71.5t-58.5 -176.5z" />
<glyph unicode="&#xe4;" horiz-adv-x="901" d="M94 305q0 149 85.5 238.5t211.5 89.5q166 0 262 -133v194q0 110 -55.5 170t-155.5 60q-143 0 -252 -129l-53 73q131 146 316 146q145 0 225 -77t80 -232v-705h-105v113q-98 -138 -262 -138q-125 0 -211 91t-86 239zM203 303q0 -105 58.5 -175.5t158.5 -70.5 q158 0 233 136v221q-76 137 -233 137q-100 0 -158.5 -71.5t-58.5 -176.5zM205 1231q0 31 22.5 52.5t53.5 21.5t52 -21.5t21 -52.5t-21.5 -53.5t-51.5 -22.5q-31 0 -53.5 22.5t-22.5 53.5zM549 1231q0 31 22.5 52.5t53.5 21.5t53 -21.5t22 -52.5t-22 -53.5t-53 -22.5 t-53.5 22.5t-22.5 53.5z" />
<glyph unicode="&#xe5;" horiz-adv-x="901" d="M94 305q0 149 85.5 238.5t211.5 89.5q166 0 262 -133v194q0 110 -55.5 170t-155.5 60q-143 0 -252 -129l-53 73q131 146 316 146q145 0 225 -77t80 -232v-705h-105v113q-98 -138 -262 -138q-125 0 -211 91t-86 239zM203 303q0 -105 58.5 -175.5t158.5 -70.5 q158 0 233 136v221q-76 137 -233 137q-100 0 -158.5 -71.5t-58.5 -176.5zM272 1309q0 73 53.5 126.5t127.5 53.5t126 -53t52 -127q0 -75 -51.5 -129t-126.5 -54q-74 0 -127.5 54t-53.5 129zM336 1309q0 -49 34.5 -84t82.5 -35q49 0 82.5 34.5t33.5 84.5q0 48 -33.5 82 t-82.5 34q-47 0 -82 -34.5t-35 -81.5z" />
<glyph unicode="&#xe6;" horiz-adv-x="1497" d="M94 303q0 149 85.5 239.5t211.5 90.5q167 0 262 -131v192q0 110 -55.5 170t-155.5 60q-143 0 -252 -129l-53 73q131 146 316 146q240 0 276 -207q39 92 117 149.5t186 57.5q92 0 165 -41.5t118 -113.5t68.5 -165t23.5 -200v-33h-651q5 -174 85.5 -284.5t219.5 -110.5 q147 0 244 133l63 -62q-126 -162 -313 -162q-216 0 -336 201q-114 -201 -326 -201q-127 0 -213 90t-86 238zM203 303q0 -112 59.5 -179t157.5 -67q81 0 150.5 46t113.5 139q-12 30 -21.5 80.5t-9.5 89.5q-38 71 -99 105t-134 34q-98 0 -157.5 -68t-59.5 -180zM756 543h544 q0 67 -15.5 132t-46 122.5t-85.5 93t-125 35.5q-68 0 -121.5 -36t-84.5 -94.5t-47.5 -123t-18.5 -129.5z" />
<glyph unicode="&#xe7;" horiz-adv-x="819" d="M98 496q0 146 45 262.5t135 186t211 69.5q91 0 154 -33t115 -96l-62 -72q-80 109 -198 109q-93 0 -160 -60t-98 -154.5t-31 -211.5t31 -212t98 -155.5t160 -60.5q119 0 198 108l62 -72q-45 -58 -101 -89.5t-135 -37.5l-33 -90q30 23 68 23q52 0 86.5 -36.5t34.5 -96.5 q0 -70 -55 -115t-136 -45q-104 0 -174 59l33 66q63 -57 141 -57q48 0 82.5 25.5t34.5 66.5q0 37 -19.5 58.5t-54.5 21.5q-40 0 -71 -35l-56 33l46 122q-163 17 -257 163t-94 356z" />
<glyph unicode="&#xe8;" horiz-adv-x="950" d="M98 496q0 145 45 261.5t133 186.5t205 70q76 0 138.5 -27t106 -74.5t74 -113t44.5 -142.5t14 -163v-33h-649q3 -174 84.5 -286t218.5 -112q71 0 135 35t111 101l61 -62q-126 -162 -311 -162q-126 0 -220 67.5t-142 185t-48 268.5zM209 543h543q0 67 -15.5 132 t-46.5 122.5t-86 93t-125 35.5q-68 0 -121.5 -36t-84.5 -94.5t-47 -123t-17 -129.5zM236 1434h118l238 -295h-80z" />
<glyph unicode="&#xe9;" horiz-adv-x="950" d="M98 496q0 145 45 261.5t133 186.5t205 70q76 0 138.5 -27t106 -74.5t74 -113t44.5 -142.5t14 -163v-33h-649q3 -174 84.5 -286t218.5 -112q71 0 135 35t111 101l61 -62q-126 -162 -311 -162q-126 0 -220 67.5t-142 185t-48 268.5zM209 543h543q0 67 -15.5 132 t-46.5 122.5t-86 93t-125 35.5q-68 0 -121.5 -36t-84.5 -94.5t-47 -123t-17 -129.5zM377 1139l237 295h119l-276 -295h-80z" />
<glyph unicode="&#xea;" horiz-adv-x="950" d="M98 496q0 145 45 261.5t133 186.5t205 70q76 0 138.5 -27t106 -74.5t74 -113t44.5 -142.5t14 -163v-33h-649q3 -174 84.5 -286t218.5 -112q71 0 135 35t111 101l61 -62q-126 -162 -311 -162q-126 0 -220 67.5t-142 185t-48 268.5zM209 543h543q0 67 -15.5 132 t-46.5 122.5t-86 93t-125 35.5q-68 0 -121.5 -36t-84.5 -94.5t-47 -123t-17 -129.5zM260 1139l168 295h107l174 -295h-74l-154 229l-147 -229h-74z" />
<glyph unicode="&#xeb;" horiz-adv-x="950" d="M98 496q0 145 45 261.5t133 186.5t205 70q76 0 138.5 -27t106 -74.5t74 -113t44.5 -142.5t14 -163v-33h-649q3 -174 84.5 -286t218.5 -112q71 0 135 35t111 101l61 -62q-126 -162 -311 -162q-126 0 -220 67.5t-142 185t-48 268.5zM209 543h543q0 67 -15.5 132 t-46.5 122.5t-86 93t-125 35.5q-68 0 -121.5 -36t-84.5 -94.5t-47 -123t-17 -129.5zM233 1231q0 31 22.5 52.5t53.5 21.5t52.5 -21.5t21.5 -52.5t-21.5 -53.5t-52.5 -22.5t-53.5 22.5t-22.5 53.5zM578 1231q0 31 22 52.5t53 21.5t53.5 -21.5t22.5 -52.5t-22.5 -53.5 t-53.5 -22.5t-53 22.5t-22 53.5z" />
<glyph unicode="&#xec;" horiz-adv-x="393" d="M-53 1434h119l237 -295h-80zM145 0v989h103v-989h-103z" />
<glyph unicode="&#xed;" horiz-adv-x="393" d="M90 1139l238 295h118l-276 -295h-80zM145 0v989h103v-989h-103z" />
<glyph unicode="&#xee;" horiz-adv-x="393" d="M-27 1139l168 295h107l174 -295h-74l-153 229l-148 -229h-74zM145 0v989h103v-989h-103z" />
<glyph unicode="&#xef;" horiz-adv-x="393" d="M-51 1231q0 31 22.5 52.5t53.5 21.5t52 -21.5t21 -52.5t-21.5 -53.5t-51.5 -22.5q-31 0 -53.5 22.5t-22.5 53.5zM145 0v989h103v-989h-103zM293 1231q0 31 22.5 52.5t53.5 21.5t53 -21.5t22 -52.5t-22 -53.5t-53 -22.5t-53.5 22.5t-22.5 53.5z" />
<glyph unicode="&#xf0;" d="M98 487q0 142 41 256.5t125.5 185t198.5 70.5q154 0 244 -149q-75 163 -207 317l-252 -112l-31 65l232 103q-51 57 -125 120l77 68q80 -77 142 -147l190 86l29 -66l-172 -78q274 -341 274 -700q0 -149 -42.5 -267.5t-130.5 -191t-210 -72.5q-91 0 -165 41t-121 111.5 t-72 162.5t-25 197zM209 487q0 -110 28 -202.5t91 -154.5t153 -62q91 0 154.5 62t91 154t27.5 203t-27.5 202.5t-91 153.5t-154.5 62q-68 0 -121.5 -35.5t-85.5 -95t-48.5 -133t-16.5 -154.5z" />
<glyph unicode="&#xf1;" horiz-adv-x="921" d="M147 0v989h103v-145q47 71 126 120.5t161 49.5q122 0 182.5 -65t60.5 -201v-748h-104v725q0 197 -170 197q-74 0 -145.5 -51.5t-110.5 -122.5v-748h-103zM197 1147q0 121 41.5 197.5t121.5 76.5q37 0 64.5 -21.5t43 -52.5t29 -62.5t31.5 -53t43 -21.5q42 0 67.5 49.5 t25.5 149.5h67q0 -121 -42.5 -197.5t-123.5 -76.5q-37 0 -63.5 21.5t-42 52.5t-29 62.5t-31.5 53t-43 21.5q-42 0 -67 -49.5t-25 -149.5h-67z" />
<glyph unicode="&#xf2;" d="M98 496q0 85 15.5 162t47 142t76.5 112.5t107.5 74.5t136.5 27t136.5 -27t107.5 -74.5t76.5 -112.5t47 -142t15.5 -162t-15.5 -162t-47 -142.5t-76.5 -114t-107.5 -75.5t-136.5 -27t-136.5 27t-107.5 75.5t-76.5 114t-47 142.5t-15.5 162zM209 496q0 -83 16.5 -158 t48.5 -136.5t85.5 -97.5t121.5 -36q91 0 154.5 63.5t91 157.5t27.5 207q0 112 -27.5 205.5t-91 157t-154.5 63.5q-68 0 -121.5 -36t-85.5 -97.5t-48.5 -136t-16.5 -156.5zM233 1434h119l238 -295h-80z" />
<glyph unicode="&#xf3;" d="M98 496q0 85 15.5 162t47 142t76.5 112.5t107.5 74.5t136.5 27t136.5 -27t107.5 -74.5t76.5 -112.5t47 -142t15.5 -162t-15.5 -162t-47 -142.5t-76.5 -114t-107.5 -75.5t-136.5 -27t-136.5 27t-107.5 75.5t-76.5 114t-47 142.5t-15.5 162zM209 496q0 -83 16.5 -158 t48.5 -136.5t85.5 -97.5t121.5 -36q91 0 154.5 63.5t91 157.5t27.5 207q0 112 -27.5 205.5t-91 157t-154.5 63.5q-68 0 -121.5 -36t-85.5 -97.5t-48.5 -136t-16.5 -156.5zM375 1139l237 295h119l-276 -295h-80z" />
<glyph unicode="&#xf4;" d="M98 496q0 85 15.5 162t47 142t76.5 112.5t107.5 74.5t136.5 27t136.5 -27t107.5 -74.5t76.5 -112.5t47 -142t15.5 -162t-15.5 -162t-47 -142.5t-76.5 -114t-107.5 -75.5t-136.5 -27t-136.5 27t-107.5 75.5t-76.5 114t-47 142.5t-15.5 162zM209 496q0 -83 16.5 -158 t48.5 -136.5t85.5 -97.5t121.5 -36q91 0 154.5 63.5t91 157.5t27.5 207q0 112 -27.5 205.5t-91 157t-154.5 63.5q-68 0 -121.5 -36t-85.5 -97.5t-48.5 -136t-16.5 -156.5zM258 1139l168 295h106l175 -295h-74l-154 229l-147 -229h-74z" />
<glyph unicode="&#xf5;" d="M98 496q0 85 15.5 162t47 142t76.5 112.5t107.5 74.5t136.5 27t136.5 -27t107.5 -74.5t76.5 -112.5t47 -142t15.5 -162t-15.5 -162t-47 -142.5t-76.5 -114t-107.5 -75.5t-136.5 -27t-136.5 27t-107.5 75.5t-76.5 114t-47 142.5t-15.5 162zM209 496q0 -83 16.5 -158 t48.5 -136.5t85.5 -97.5t121.5 -36q91 0 154.5 63.5t91 157.5t27.5 207q0 112 -27.5 205.5t-91 157t-154.5 63.5q-68 0 -121.5 -36t-85.5 -97.5t-48.5 -136t-16.5 -156.5zM215 1147q0 120 42 197t122 77q37 0 64.5 -21.5t43 -52.5t29 -62.5t31.5 -53t43 -21.5q42 0 67 49.5 t25 149.5h68q0 -121 -42.5 -197.5t-123.5 -76.5q-37 0 -63.5 21.5t-42 52.5t-29 62.5t-31.5 53t-43 21.5q-42 0 -67 -49.5t-25 -149.5h-68z" />
<glyph unicode="&#xf6;" d="M98 496q0 85 15.5 162t47 142t76.5 112.5t107.5 74.5t136.5 27t136.5 -27t107.5 -74.5t76.5 -112.5t47 -142t15.5 -162t-15.5 -162t-47 -142.5t-76.5 -114t-107.5 -75.5t-136.5 -27t-136.5 27t-107.5 75.5t-76.5 114t-47 142.5t-15.5 162zM209 496q0 -83 16.5 -158 t48.5 -136.5t85.5 -97.5t121.5 -36q91 0 154.5 63.5t91 157.5t27.5 207q0 112 -27.5 205.5t-91 157t-154.5 63.5q-68 0 -121.5 -36t-85.5 -97.5t-48.5 -136t-16.5 -156.5zM233 1231q0 31 22.5 52.5t53.5 21.5t52.5 -21.5t21.5 -52.5t-21.5 -53.5t-52.5 -22.5t-53.5 22.5 t-22.5 53.5zM578 1231q0 31 22 52.5t53 21.5t53.5 -21.5t22.5 -52.5t-22.5 -53.5t-53.5 -22.5t-53 22.5t-22 53.5z" />
<glyph unicode="&#xf7;" horiz-adv-x="907" d="M59 649v82h789v-82h-789zM375 338q0 33 23.5 56.5t56.5 23.5q34 0 57 -23t23 -57q0 -33 -23.5 -56.5t-56.5 -23.5q-32 0 -56 24t-24 56zM375 1032q0 33 23.5 56.5t56.5 23.5q34 0 57 -23t23 -57q0 -33 -23.5 -56.5t-56.5 -23.5q-32 0 -56 24t-24 56z" />
<glyph unicode="&#xf8;" d="M98 496q0 85 15.5 162t47 142t76.5 112.5t107.5 74.5t136.5 27q134 0 224 -84l36 59h82l-69 -112q110 -140 110 -381q0 -85 -15.5 -162t-47 -142.5t-76.5 -114t-107.5 -75.5t-136.5 -27q-137 0 -231 88l-39 -63h-82l74 119q-105 144 -105 377zM209 496q0 -161 55 -277 l387 623q-70 80 -170 80q-68 0 -121.5 -36t-85.5 -97.5t-48.5 -136t-16.5 -156.5zM305 154q70 -86 176 -86q91 0 154.5 63.5t91 157.5t27.5 207q0 164 -62 282z" />
<glyph unicode="&#xf9;" horiz-adv-x="921" d="M145 240v749h103v-727q0 -104 44 -149t128 -45q75 0 145 49.5t109 120.5v751h104v-989h-104v141q-51 -72 -126.5 -119t-160.5 -47q-123 0 -182.5 63.5t-59.5 201.5zM215 1434h119l237 -295h-79z" />
<glyph unicode="&#xfa;" horiz-adv-x="921" d="M145 240v749h103v-727q0 -104 44 -149t128 -45q75 0 145 49.5t109 120.5v751h104v-989h-104v141q-51 -72 -126.5 -119t-160.5 -47q-123 0 -182.5 63.5t-59.5 201.5zM356 1139l238 295h119l-277 -295h-80z" />
<glyph unicode="&#xfb;" horiz-adv-x="921" d="M145 240v749h103v-727q0 -104 44 -149t128 -45q75 0 145 49.5t109 120.5v751h104v-989h-104v141q-51 -72 -126.5 -119t-160.5 -47q-123 0 -182.5 63.5t-59.5 201.5zM238 1139l168 295h106l174 -295h-74l-153 229l-148 -229h-73z" />
<glyph unicode="&#xfc;" horiz-adv-x="921" d="M145 240v749h103v-727q0 -104 44 -149t128 -45q75 0 145 49.5t109 120.5v751h104v-989h-104v141q-51 -72 -126.5 -119t-160.5 -47q-123 0 -182.5 63.5t-59.5 201.5zM219 1231q0 31 22.5 52.5t53.5 21.5t52.5 -21.5t21.5 -52.5t-21.5 -53.5t-52.5 -22.5t-53.5 22.5 t-22.5 53.5zM563 1231q0 31 22.5 52.5t53.5 21.5t53.5 -21.5t22.5 -52.5t-22.5 -53.5t-53.5 -22.5t-53.5 22.5t-22.5 53.5z" />
<glyph unicode="&#xfd;" horiz-adv-x="802" d="M20 989h115l266 -862l269 862h112l-399 -1214q-32 -93 -83 -134.5t-128 -41.5q-55 0 -90 14l18 94q29 -16 66 -16q44 0 71 24.5t50 87.5l59 177zM295 1139l237 295h119l-276 -295h-80z" />
<glyph unicode="&#xfe;" horiz-adv-x="958" d="M145 -377v1743h103v-520q44 78 113.5 123t152.5 45q164 0 257 -142t93 -376t-93 -377.5t-257 -143.5q-82 0 -151.5 44t-114.5 128v-524h-103zM248 252q33 -75 102.5 -129.5t145.5 -54.5q85 0 144.5 60t86.5 154.5t27 213.5t-27 213t-86.5 153.5t-144.5 59.5 q-76 0 -146 -53.5t-102 -127.5v-489z" />
<glyph unicode="&#xff;" horiz-adv-x="802" d="M20 989h115l266 -862l269 862h112l-399 -1214q-32 -93 -83 -134.5t-128 -41.5q-55 0 -90 14l18 94q29 -16 66 -16q44 0 71 24.5t50 87.5l59 177zM154 1231q0 31 22 52.5t53 21.5t52.5 -21.5t21.5 -52.5t-21.5 -53.5t-52.5 -22.5t-53 22.5t-22 53.5zM498 1231 q0 31 22 52.5t53 21.5t53.5 -21.5t22.5 -52.5t-22.5 -53.5t-53.5 -22.5t-53 22.5t-22 53.5z" />
<glyph unicode="&#x152;" horiz-adv-x="1734" d="M109 682q0 199 54.5 356t166 252.5t264.5 95.5q111 0 208.5 -58t153.5 -179v217h668v-102h-553v-512h539v-103h-539v-547h553v-102h-668v217q-57 -123 -154.5 -182.5t-207.5 -59.5q-153 0 -264.5 96t-166 254t-54.5 357zM229 682q0 -171 41.5 -305t128.5 -215.5 t207 -81.5q123 0 214.5 83.5t135.5 239.5v560q-44 155 -135.5 237t-214.5 82q-120 0 -207 -80.5t-128.5 -214.5t-41.5 -305z" />
<glyph unicode="&#x153;" horiz-adv-x="1603" d="M98 496q0 85 15.5 162t47 142t76.5 112.5t107.5 74.5t136.5 27q69 0 126.5 -24t96 -65t64 -86.5t41.5 -97.5q15 53 42 99.5t67 86.5t96.5 63.5t122.5 23.5q123 0 210 -72.5t126.5 -187.5t39.5 -260v-33h-651q5 -175 86 -286.5t219 -111.5q71 0 134 35t110 101l64 -62 q-126 -162 -314 -162q-75 0 -136.5 23.5t-102.5 65t-68.5 87.5t-44.5 101q-17 -54 -42.5 -99.5t-64 -87.5t-95.5 -66t-126 -24q-74 0 -136.5 27t-107.5 75.5t-76.5 114t-47 142.5t-15.5 162zM209 496q0 -114 28 -208.5t91 -158t153 -63.5t153.5 63.5t91.5 158.5t28 208 q0 112 -28 206t-91.5 157t-153.5 63q-68 0 -121.5 -36t-85.5 -97t-48.5 -135.5t-16.5 -157.5zM862 543h545q0 67 -15.5 132t-46 122.5t-85.5 93t-125 35.5q-55 0 -101 -24t-76.5 -63.5t-52 -90t-32 -102.5t-11.5 -103z" />
<glyph unicode="&#x178;" horiz-adv-x="989" d="M16 1366h131l349 -666l348 666h129l-420 -780v-586h-115v586zM254 1575q0 31 22.5 52.5t53.5 21.5t52 -21.5t21 -52.5t-21.5 -53.5t-51.5 -22.5q-31 0 -53.5 22.5t-22.5 53.5zM598 1575q0 31 22.5 52.5t53.5 21.5t53.5 -21.5t22.5 -52.5t-22.5 -53.5t-53.5 -22.5 t-53.5 22.5t-22.5 53.5z" />
<glyph unicode="&#x2c6;" horiz-adv-x="448" d="M0 1139l168 295h106l175 -295h-74l-154 229l-147 -229h-74z" />
<glyph unicode="&#x2dc;" horiz-adv-x="534" d="M0 1147q0 120 42 197t122 77q37 0 64.5 -21.5t43 -52.5t29 -62.5t31.5 -53t43 -21.5q42 0 67 49.5t25 149.5h68q0 -121 -42.5 -197.5t-123.5 -76.5q-37 0 -63.5 21.5t-42 52.5t-29 62.5t-31.5 53t-43 21.5q-42 0 -67 -49.5t-25 -149.5h-68z" />
<glyph unicode="&#x2000;" horiz-adv-x="893" />
<glyph unicode="&#x2001;" horiz-adv-x="1786" />
<glyph unicode="&#x2002;" horiz-adv-x="893" />
<glyph unicode="&#x2003;" horiz-adv-x="1786" />
<glyph unicode="&#x2004;" horiz-adv-x="595" />
<glyph unicode="&#x2005;" horiz-adv-x="446" />
<glyph unicode="&#x2006;" horiz-adv-x="297" />
<glyph unicode="&#x2007;" horiz-adv-x="297" />
<glyph unicode="&#x2008;" horiz-adv-x="223" />
<glyph unicode="&#x2009;" horiz-adv-x="357" />
<glyph unicode="&#x200a;" horiz-adv-x="99" />
<glyph unicode="&#x2010;" horiz-adv-x="544" d="M61 449v94h422v-94h-422z" />
<glyph unicode="&#x2011;" horiz-adv-x="544" d="M61 449v94h422v-94h-422z" />
<glyph unicode="&#x2012;" horiz-adv-x="544" d="M61 449v94h422v-94h-422z" />
<glyph unicode="&#x2013;" horiz-adv-x="1079" d="M61 449v94h957v-94h-957z" />
<glyph unicode="&#x2014;" horiz-adv-x="1509" d="M61 449v94h1387v-94h-1387z" />
<glyph unicode="&#x2018;" horiz-adv-x="446" d="M117 1110q0 83 41.5 157.5t103.5 118.5l60 -49q-49 -33 -82.5 -86.5t-36.5 -101.5q1 0 9 1t11 1q35 0 58.5 -24.5t23.5 -59.5q0 -36 -25 -61t-61 -25q-43 0 -72.5 35t-29.5 94z" />
<glyph unicode="&#x2019;" horiz-adv-x="446" d="M117 1028q49 35 83.5 89.5t37.5 101.5l-9 -1q-9 -1 -12 -1q-36 0 -59 23.5t-23 59.5t25 61t61 25q42 0 71.5 -35.5t29.5 -95.5q0 -82 -41.5 -156.5t-104.5 -117.5z" />
<glyph unicode="&#x201a;" horiz-adv-x="446" d="M117 -201q49 34 83.5 87.5t37.5 101.5l-9 -1q-9 -1 -12 -1q-36 0 -59 24t-23 60t25 61t61 25q42 0 71.5 -35t29.5 -94q0 -83 -41.5 -158.5t-104.5 -118.5z" />
<glyph unicode="&#x201c;" horiz-adv-x="735" d="M125 1110q0 83 41.5 157.5t103.5 118.5l60 -49q-49 -33 -82.5 -86.5t-36.5 -101.5q14 2 20 2q35 0 57.5 -24t22.5 -60t-24 -61t-62 -25q-42 0 -71 35t-29 94zM412 1110q0 83 41.5 157.5t103.5 118.5l59 -49q-49 -33 -82 -86.5t-36 -101.5l8 1q8 1 12 1q35 0 58.5 -24.5 t23.5 -59.5q0 -36 -25 -61t-61 -25q-43 0 -72.5 35t-29.5 94z" />
<glyph unicode="&#x201d;" horiz-adv-x="735" d="M117 1028q49 35 83.5 89.5t37.5 101.5l-9 -1q-9 -1 -12 -1q-36 0 -59 23.5t-23 59.5t25 61t61 25q42 0 71.5 -35.5t29.5 -95.5q0 -82 -41.5 -156.5t-104.5 -117.5zM406 1028q49 35 82 89t36 102l-8 -1q-8 -1 -12 -1q-35 0 -58.5 24t-23.5 59q0 36 25 61t61 25 q43 0 71.5 -35t28.5 -96q0 -82 -41 -156.5t-102 -117.5z" />
<glyph unicode="&#x201e;" horiz-adv-x="735" d="M117 -201q49 34 83.5 87.5t37.5 101.5l-9 -1q-9 -1 -12 -1q-36 0 -59 24t-23 60t25 61t61 25q42 0 71.5 -35t29.5 -94q0 -83 -41.5 -158.5t-104.5 -118.5zM406 -201q49 33 82 87t36 102l-8 -1q-8 -1 -12 -1q-35 0 -58.5 24.5t-23.5 59.5q0 36 25 61t61 25 q43 0 71.5 -34.5t28.5 -94.5q0 -83 -41 -158.5t-102 -118.5z" />
<glyph unicode="&#x2022;" horiz-adv-x="733" d="M160 496q0 88 60.5 148.5t148.5 60.5t148.5 -60.5t60.5 -148.5q0 -86 -60.5 -146.5t-148.5 -60.5t-148.5 60.5t-60.5 146.5z" />
<glyph unicode="&#x2026;" horiz-adv-x="1341" d="M135 70q0 35 26.5 60.5t61.5 25.5q37 0 62.5 -25.5t25.5 -60.5q0 -37 -25.5 -62.5t-62.5 -25.5q-36 0 -62 26t-26 62zM582 70q0 35 26.5 60.5t61.5 25.5q37 0 63.5 -25.5t26.5 -60.5q0 -37 -26.5 -62.5t-63.5 -25.5q-36 0 -62 26t-26 62zM1028 70q0 35 26.5 60.5 t63.5 25.5q35 0 61.5 -25.5t26.5 -60.5q0 -36 -26 -62t-62 -26q-37 0 -63.5 25.5t-26.5 62.5z" />
<glyph unicode="&#x202f;" horiz-adv-x="357" />
<glyph unicode="&#x2039;" horiz-adv-x="483" d="M61 498l256 362h105l-256 -362l256 -369h-105z" />
<glyph unicode="&#x203a;" horiz-adv-x="483" d="M61 129l256 369l-256 362h105l256 -362l-256 -369h-105z" />
<glyph unicode="&#x205f;" horiz-adv-x="446" />
<glyph unicode="&#x20ac;" horiz-adv-x="1101" d="M53 496v84h92q-4 33 -4 102q0 36 4 106h-92v84h103q41 235 171.5 376t323.5 141q238 0 379 -240l-96 -49q-99 184 -283 184q-140 0 -239 -112t-133 -300h462v-84h-475q-4 -70 -4 -106q0 -69 4 -102h475v-84h-465q34 -189 134.5 -302.5t240.5 -113.5q95 0 167.5 55.5 t117.5 149.5l96 -49q-138 -261 -381 -261q-194 0 -325 142t-170 379h-103z" />
<glyph unicode="&#x2122;" horiz-adv-x="847" d="M35 1313v53h270v-53h-106v-398h-58v398h-106zM379 915v451h88l111 -324l110 324h88v-451h-57v373l-133 -373h-17l-133 373v-373h-57z" />
<glyph unicode="&#xe000;" horiz-adv-x="993" d="M0 0v993h993v-993h-993z" />
</font>
</defs>
</svg>
